<?xml version="1.0" standalone="no"?>
<!DOCTYPE svg PUBLIC "-//W3C//DTD SVG 1.1//EN" "http://www.w3.org/Graphics/SVG/1.1/DTD/svg11.dtd" >
<svg xmlns="http://www.w3.org/2000/svg">
<metadata></metadata>
<defs>
<font id="galatia_silregular" horiz-adv-x="1065" >
<font-face units-per-em="2048" ascent="1638" descent="-410" />
<missing-glyph horiz-adv-x="649" />
<glyph horiz-adv-x="2048" />
<glyph horiz-adv-x="2048" />
<glyph unicode="&#xd;" horiz-adv-x="649" />
<glyph unicode=" "  horiz-adv-x="649" />
<glyph unicode="&#x09;" horiz-adv-x="649" />
<glyph unicode="&#xa0;" horiz-adv-x="649" />
<glyph unicode="!" horiz-adv-x="938" d="M276 90q0 -21 8.5 -40.5t23 -34.5t34 -24t41.5 -9q23 0 43.5 8.5t36 23t24.5 34t9 42.5t-9 43.5t-24.5 35.5t-36 23.5t-43.5 8.5q-22 0 -41.5 -9t-34 -24t-23 -35.5t-8.5 -42.5zM279 1217q0 -21 7 -90t20 -179.5t31 -259.5t40 -330h14q22 181 40.5 330t32 259.5t21 179.5 t7.5 90q0 81 -29.5 123t-79.5 42t-77 -42t-27 -123z" />
<glyph unicode="&#x22;" horiz-adv-x="868" d="M139 1317q0 -25 5 -68t18 -106l57 -307h43l57 305q14 74 21.5 121t7.5 67q0 51 -30 82t-76 31q-45 0 -74 -27.5t-29 -97.5zM518 1317q0 -25 6 -68.5t19 -109.5l55 -303h51l58 303q14 77 18 124t4 68q0 45 -27.5 78t-76.5 33q-51 0 -79 -29.5t-28 -95.5z" />
<glyph unicode="#" d="M37 444h178l-96 -475h88l98 475h352l-94 -475h84l96 475h285v86h-266l74 357h192v82h-178l98 473h-86l-100 -473h-350l92 473h-84l-94 -473h-289v-82h268l-74 -357h-194v-86zM319 530l74 357h355l-74 -357h-355z" />
<glyph unicode="$" d="M113 53q37 -16 82 -30.5t93.5 -25.5t98 -18.5t94.5 -9.5v-131h66v131q80 5 154 33.5t131 77.5t91.5 117.5t34.5 152.5q0 47 -9 86t-29 75t-52 70.5t-78 72.5t-106 82.5t-137 99.5v528q78 -8 133 -33.5t91 -68t54.5 -101t24.5 -131.5h41v311q-85 32 -136 50.5t-65 23.5 q-29 6 -65 11.5t-78 7.5v96h-66v-96q-53 -3 -117 -23t-120 -60.5t-93.5 -103t-37.5 -151.5q0 -77 24.5 -135.5t72 -109.5t116 -100t155.5 -106v-606q-152 14 -232 87.5t-91 221.5h-45v-295zM274 1161q0 60 23 98t55.5 60t68 31.5t60.5 13.5v-483q-28 18 -64 43.5t-67.5 60 t-53.5 78.5t-22 98zM547 39v561q59 -42 105 -77t77.5 -69.5t47.5 -71.5t16 -83q0 -47 -13 -84t-34 -65.5t-47.5 -48.5t-54 -33.5t-53 -20.5t-44.5 -8z" />
<glyph unicode="%" horiz-adv-x="1841" d="M162 909q0 -140 63.5 -216.5t190.5 -76.5q47 0 97.5 19.5t99 55.5t92 85.5t76.5 109t52 127.5t19 140q0 28 -8 59t-8 56q31 -12 75 -15t93.5 2t101.5 18.5t100 33.5l-745 -1338h102l823 1477h-102q-53 -69 -137.5 -107.5t-181.5 -40.5q-48 -1 -80 7.5t-55.5 21.5 t-42.5 28.5t-41 28.5t-51 22t-72 9q-61 0 -118.5 -21.5t-108.5 -59t-94 -87t-74 -106t-48.5 -116t-17.5 -116.5zM324 848q0 73 17.5 139t45 122.5t62 101.5t68.5 77t64 49t50 17q14 0 27.5 -8t30 -19.5t38 -23.5t51.5 -21q5 -25 12 -48.5t7 -49.5q0 -52 -12 -109t-34 -112 t-53 -104.5t-68.5 -87t-81.5 -59.5t-91 -22q-39 0 -64.5 11.5t-40.5 32.5t-21.5 50t-6.5 64zM991 262q0 -60 11.5 -113.5t42 -93t83 -63t134.5 -23.5q69 0 143 40t135.5 113.5t101 176.5t39.5 229q0 42 -15 84.5t-44 76t-71.5 54.5t-96.5 21q-61 0 -118.5 -21t-109 -57.5 t-94.5 -85.5t-74.5 -105t-49 -115.5t-17.5 -117.5zM1153 182q0 48 11.5 104.5t32.5 113.5t51 110t66 94t78 65.5t87 24.5q36 0 63.5 -16t46 -41.5t28 -57.5t9.5 -63q0 -43 -11 -95.5t-32.5 -106t-51.5 -103.5t-67.5 -89.5t-82.5 -63t-95 -23.5q-36 0 -61.5 11.5t-41 32 t-23 47t-7.5 56.5z" />
<glyph unicode="&#x26;" horiz-adv-x="1747" d="M121 279q0 -57 23.5 -113t70 -100t116.5 -71.5t163 -27.5q86 0 155.5 21.5t125 52.5t98.5 66t75 63q28 -31 66 -66.5t83.5 -66t99.5 -50.5t116 -20q81 0 138.5 30t95 74.5t58.5 94t29 88.5l-39 27q-5 -20 -16.5 -46.5t-33.5 -50.5t-56 -40.5t-84 -16.5q-54 0 -101 20.5 t-86 50.5t-70 64t-54 60q57 72 108.5 148.5t97.5 160.5q45 84 76 129.5t59 67.5t58 28.5t74 11.5v39h-439v-39q7 0 23.5 -4.5t33 -17t29.5 -35t13 -59.5q0 -150 -183 -369q-148 198 -276 430q48 25 107 59t111.5 79t88 103.5t35.5 133.5q0 49 -18 95t-53.5 81t-88 56.5 t-121.5 21.5q-64 0 -128.5 -20t-116.5 -62t-84.5 -107t-32.5 -155q0 -48 9 -92t22 -83.5t28 -73.5t27 -61q-43 -23 -91.5 -51.5t-96.5 -63.5t-92 -76.5t-78 -90.5t-54 -106t-20 -121zM338 373q0 74 27 131t66 98.5t81.5 69.5t73.5 45q34 -63 62 -115.5t54 -97.5t74 -112 t117 -163q-26 -21 -57 -45t-67.5 -44t-78.5 -33t-90 -13q-65 0 -114 24.5t-82 64t-49.5 89.5t-16.5 101zM645 1180q0 15 7.5 46.5t28 63t56 55t92.5 23.5q31 0 60 -12.5t51.5 -35.5t35.5 -55.5t13 -72.5q0 -67 -28 -118t-68 -88.5t-84 -62.5t-76 -40q-14 30 -29.5 66.5 t-28.5 75.5t-21.5 79t-8.5 76z" />
<glyph unicode="'" horiz-adv-x="385" d="M88 1317q0 -23 5 -66t18 -108l55 -307h47l55 305q14 77 21.5 124.5t7.5 65.5t-6.5 38t-20 36t-34.5 26.5t-50 10.5q-49 0 -73.5 -30t-24.5 -95z" />
<glyph unicode="(" horiz-adv-x="709" d="M106 512q0 -113 23.5 -214t62.5 -189t90.5 -163t107.5 -135t112.5 -105t105.5 -73l27 35q-81 58 -146 130t-110.5 173t-69.5 238.5t-24 325.5q0 123 12.5 220.5t35.5 175t55 138t71 110t83.5 91t92.5 80.5l-21 32q-110 -65 -203 -152.5t-160.5 -197t-106 -240 t-38.5 -280.5z" />
<glyph unicode=")" horiz-adv-x="709" d="M63 -328l21 -30q111 64 204.5 152t161.5 197.5t106 240t38 280.5q0 113 -23.5 214t-63 189t-91 163t-107 134.5t-112 104t-105.5 72.5l-29 -33q55 -39 102.5 -83.5t86.5 -99t69 -121t51 -150t31.5 -186t10.5 -227.5q0 -123 -12.5 -220.5t-35.5 -175t-55 -138.5 t-71 -110.5t-84 -91.5t-93 -81z" />
<glyph unicode="*" horiz-adv-x="1038" d="M159.5 805.5q-10.5 -25.5 8.5 -57.5t47 -37t57 12q18 10 36 30.5t44.5 47.5t65.5 59.5t98 67.5q0 -69 -8.5 -118.5t-19 -86t-19 -62t-8.5 -45.5q0 -34 17.5 -56.5t56.5 -22.5q37 0 54 22.5t17 56.5q0 20 -8.5 45.5t-19 62t-19 86t-8.5 118.5q59 -35 98.5 -66.5 t66.5 -57.5t45 -46t36 -31q29 -17 55.5 -14t46.5 37q17 31 8.5 57t-37.5 43q-19 11 -46.5 16.5t-65 14.5t-85 26t-106.5 51q59 35 106.5 53t84.5 27.5t64.5 15.5t45.5 17q29 17 39.5 42.5t-8.5 57.5t-47 37t-57 -12q-18 -10 -36 -30.5t-44.5 -48t-65.5 -60t-98 -66.5 q0 69 8.5 118.5t19 85.5t19 61.5t8.5 46.5q0 34 -17 56.5t-54 22.5q-39 0 -56.5 -22.5t-17.5 -56.5q0 -21 8.5 -46.5t19 -61.5t19 -85.5t8.5 -118.5q-59 34 -98.5 65.5t-66.5 58t-45 46.5t-36 31q-29 17 -55.5 14t-46.5 -37q-17 -31 -8.5 -57t37.5 -43q18 -11 45.5 -16.5 t64.5 -15t84.5 -27t106.5 -52.5q-59 -34 -106.5 -51.5t-84 -27.5t-63.5 -15.5t-45 -15.5q-29 -17 -39.5 -42.5z" />
<glyph unicode="+" horiz-adv-x="1208" d="M78 446h446v-446h135v446h447v146h-447v444h-135v-444h-446v-146z" />
<glyph unicode="," horiz-adv-x="709" d="M184 90q0 -28 11.5 -48t28.5 -33t36.5 -19t36.5 -6q15 0 24.5 1t17 2.5l15 3t17.5 1.5q11 0 14.5 -6t3.5 -19q0 -25 -11.5 -54t-33 -58.5t-52 -57t-69.5 -49.5l23 -41q36 18 75.5 48t72 70.5t54 90t21.5 104.5q0 49 -14 84.5t-36.5 58.5t-49.5 34.5t-52 11.5 q-58 0 -95.5 -31.5t-37.5 -87.5z" />
<glyph unicode="-" horiz-adv-x="709" d="M94 399h500v129h-500v-129z" />
<glyph unicode="." horiz-adv-x="709" d="M184 113q0 -29 11 -54t29.5 -43.5t43 -29.5t51.5 -11q28 0 53.5 11t44 29.5t29.5 43.5t11 54q0 27 -11 51.5t-29.5 43t-44 29.5t-53.5 11q-27 0 -51.5 -11t-43 -29.5t-29.5 -43t-11 -51.5z" />
<glyph unicode="/" horiz-adv-x="649" d="M18 -35h103l450 1419h-104z" />
<glyph unicode="0" horiz-adv-x="1051" d="M31 668q0 -180 38.5 -309.5t102.5 -212.5t147.5 -122.5t172.5 -39.5q88 0 171.5 40t148.5 124.5t104.5 216.5t39.5 317q0 183 -41 315t-106 216.5t-144.5 124.5t-156.5 40q-92 0 -177.5 -38.5t-152.5 -123.5t-107 -220t-40 -328zM223 686q0 131 11.5 229t31.5 168.5 t47 116.5t58 73t64 37.5t65 10.5q54 0 101 -31t81.5 -106.5t54.5 -202.5t21 -319q1 -186 -18 -307t-53 -191.5t-82 -98.5t-105 -28q-32 0 -65 11t-64 38.5t-58 74.5t-47 119.5t-31.5 172.5t-11.5 233z" />
<glyph unicode="1" horiz-adv-x="1051" d="M242 1157q68 31 109.5 40t63.5 0.5t29 -32t7 -55.5v-930q0 -39 -7 -66t-28 -44.5t-59.5 -27t-100.5 -13.5v-29h561v29q-62 3 -100 9.5t-59 19.5t-28 33t-7 50v1217q0 14 -4 16t-13 -4l-364 -184v-29z" />
<glyph unicode="2" horiz-adv-x="1051" d="M76 0h798l107 274l-25 17q-22 -44 -42.5 -71t-43 -41.5t-48.5 -19.5t-58 -5h-490q50 56 114 120t131.5 133t132.5 143t116 150.5t82 155t31 156.5q0 68 -24 134t-71.5 118t-116.5 84t-159 32q-88 0 -160.5 -30t-128 -84t-92 -129.5t-51.5 -165.5l43 -8q24 72 57 123 t72.5 83t84.5 47t93 15q51 0 100 -17.5t87.5 -54.5t61.5 -93t23 -134q0 -67 -19 -130.5t-56 -129.5t-90.5 -136.5t-123 -149.5t-153.5 -170t-182 -198v-18z" />
<glyph unicode="3" horiz-adv-x="1051" d="M100 102q0 -18 8 -38t32.5 -37.5t69 -29t116.5 -11.5q151 0 259 44.5t177.5 114t102 154t32.5 164.5q0 85 -27 146t-67 104t-85.5 70t-82.5 44q29 19 62 45.5t61 61t46.5 76.5t18.5 92q0 62 -23.5 114t-64.5 89.5t-98.5 58t-124.5 20.5t-129 -19t-115.5 -59.5t-96 -103 t-69.5 -149.5l31 -11q59 115 134 166.5t165 51.5q45 0 87.5 -15t75 -42.5t52 -66.5t19.5 -87q0 -65 -19.5 -113t-61.5 -87t-108 -72.5t-158 -69.5l7 -25q14 2 24 2h21q180 0 276 -84t96 -242q0 -75 -23 -131t-61 -93.5t-86.5 -56t-99.5 -18.5q-41 0 -80 17.5t-76.5 39 t-74 39t-70.5 17.5q-32 0 -52 -19t-20 -51z" />
<glyph unicode="4" horiz-adv-x="1051" d="M35 340h573v-340h160v340h209v133h-209v899h-94l-639 -897v-135zM117 473l491 692v-692h-491z" />
<glyph unicode="5" horiz-adv-x="1051" d="M80 109q0 -24 10 -47.5t37.5 -42.5t77 -30.5t127.5 -11.5q58 0 121.5 12.5t126 38.5t119 67t99 99t68 133t25.5 169q0 100 -29.5 176.5t-78.5 133t-111.5 94.5t-128 62.5t-129.5 37t-115 16.5l82 178h416q23 0 37 23l73 176l-18 12q-14 -19 -31.5 -34t-42.5 -15h-448 l-222 -490q-5 -11 -2 -17.5t17 -6.5q75 0 147.5 -13t137.5 -38t119.5 -61.5t94 -84.5t62 -106t22.5 -127q0 -67 -15 -119.5t-38.5 -92.5t-54 -68t-61 -45.5t-59.5 -25.5t-50 -8q-32 0 -68.5 20t-75 44.5t-77.5 44.5t-76 20q-40 0 -64 -18t-24 -55z" />
<glyph unicode="6" horiz-adv-x="1051" d="M84 586q0 -101 19 -185.5t52.5 -152t79 -118.5t97.5 -85t108 -51t111 -17q84 0 160.5 36t134 100t91.5 152t34 192q0 116 -35 196t-89 130t-120 72t-127 22q-35 0 -64.5 -3t-60.5 -12.5t-66 -27t-81 -46.5q29 116 82.5 215.5t130 175.5t174 124t215.5 61l-6 37 q-125 -3 -235.5 -35.5t-203.5 -89t-167.5 -133t-126.5 -166t-79.5 -189t-27.5 -202.5zM270 516q0 58 8.5 107.5t34 85.5t72 56.5t121.5 20.5q78 0 131.5 -35.5t86.5 -94t47.5 -133t14.5 -152.5t-16 -139.5t-45 -104t-71 -65.5t-93 -23t-92 20t-73.5 54.5t-56 80.5t-39 99 t-23 110t-7.5 113z" />
<glyph unicode="7" horiz-adv-x="1051" d="M57 1055l33 -19q23 40 45 71t47 52t55 32t70 11h465l-399 -1202h133l426 1321v35h-756z" />
<glyph unicode="8" horiz-adv-x="1051" d="M121 305q0 -62 25.5 -121t75.5 -105t123.5 -74t168.5 -28q76 0 135.5 15.5t104 42t75.5 60.5t50 71t27.5 74.5t8.5 70.5q0 31 -3 61t-13.5 61.5t-31 65.5t-55.5 73.5t-87.5 85t-126.5 100.5q72 40 125 77.5t87 76.5t50.5 81.5t16.5 93.5q0 54 -22.5 106t-66.5 93.5 t-109.5 66.5t-150.5 25q-93 0 -166.5 -26t-124.5 -70t-78.5 -101t-27.5 -118q0 -43 12 -88.5t41.5 -93t78.5 -97.5t124 -102q-126 -74 -196 -167t-70 -210zM276 334q0 36 8 76.5t27 81.5t50.5 79t78.5 70q111 -79 175 -133t95.5 -95.5t39.5 -77.5t8 -79q0 -41 -12.5 -80.5 t-39.5 -71t-70 -50.5t-104 -19q-79 0 -128.5 32.5t-78 79t-39 98t-10.5 89.5zM285 1120q0 42 14.5 78.5t41.5 63.5t66 43t87 16q61 0 105.5 -18t74 -49t43.5 -71t14 -85t-8.5 -82t-30 -71.5t-58 -70t-93.5 -75.5q-72 45 -121 85.5t-79 79.5t-43 77t-13 79z" />
<glyph unicode="9" horiz-adv-x="1051" d="M76 905q0 -116 32.5 -197t85 -132t118.5 -74t132 -23q72 0 148 28.5t158 90.5q-36 -117 -84.5 -215t-121.5 -175.5t-175.5 -132t-245.5 -83.5l14 -39q136 13 249.5 52.5t204.5 99t159.5 137t114 166t68.5 185t23 195.5q0 148 -38.5 258.5t-102.5 184t-146.5 110.5 t-170.5 37q-90 0 -167 -35t-134 -97.5t-89 -149.5t-32 -191zM264 977q0 78 14.5 141.5t42 108.5t68 69.5t92.5 24.5q50 0 90 -20t71 -55t53 -81.5t36 -100t20.5 -110.5t6.5 -112q0 -26 -1 -55t-4 -54.5t-7.5 -44.5t-10.5 -26q-15 -17 -38.5 -33t-51 -28.5t-57.5 -20 t-58 -7.5q-77 0 -128 32.5t-81.5 87.5t-43.5 128.5t-13 155.5z" />
<glyph unicode=":" horiz-adv-x="709" d="M184 113q0 -29 11 -54t29.5 -43.5t43 -29.5t51.5 -11q28 0 53.5 11t44 29.5t29.5 43.5t11 54q0 27 -11 51.5t-29.5 43t-44 29.5t-53.5 11q-27 0 -51.5 -11t-43 -29.5t-29.5 -43t-11 -51.5zM184 889q0 -29 11 -53.5t29.5 -43.5t43 -29.5t51.5 -10.5q28 0 53.5 10.5 t44 29.5t29.5 43.5t11 53.5q0 28 -11 52.5t-29.5 43t-44 29t-53.5 10.5q-27 0 -51.5 -10.5t-43 -29t-29.5 -43t-11 -52.5z" />
<glyph unicode=";" horiz-adv-x="709" d="M184 90q0 -28 11.5 -48t28.5 -33t36.5 -19t36.5 -6q15 0 24.5 1t17 2.5l15 3t17.5 1.5q11 0 14.5 -6t3.5 -19q0 -25 -11.5 -54t-33 -58.5t-52 -57t-69.5 -49.5l23 -41q36 18 75.5 48t72 70.5t54 90t21.5 104.5q0 49 -14 84.5t-36.5 58.5t-49.5 34.5t-52 11.5 q-58 0 -95.5 -31.5t-37.5 -87.5zM184 889q0 -29 11 -53.5t29.5 -43.5t43 -29.5t51.5 -10.5q28 0 53.5 10.5t44 29.5t29.5 43.5t11 53.5q0 28 -11 52.5t-29.5 43t-44 29t-53.5 10.5q-27 0 -51.5 -10.5t-43 -29t-29.5 -43t-11 -52.5z" />
<glyph unicode="&#x3c;" horiz-adv-x="1647" d="M209 551l1229 -471v127l-1098 407l1098 408v127l-1229 -471v-127z" />
<glyph unicode="=" horiz-adv-x="1176" d="M78 246h1028v135h-1028v-135zM78 655h1028v136h-1028v-136z" />
<glyph unicode="&#x3e;" horiz-adv-x="1647" d="M209 80l1229 471v127l-1229 471v-127l1098 -408l-1098 -407v-127z" />
<glyph unicode="?" horiz-adv-x="946" d="M96 1143q0 -51 14 -83t32.5 -50t38 -24.5t30.5 -6.5q14 0 29 6t27 17t20 28t8 39q0 18 -10.5 40t-22.5 45.5t-22.5 47.5t-10.5 45q0 23 12 47.5t36.5 44.5t61.5 32.5t87 12.5q41 0 84 -15.5t78 -49.5t57.5 -88.5t22.5 -132.5q0 -41 -9.5 -84.5t-24 -84.5t-32 -77.5 t-33.5 -63.5q-35 -57 -60 -112.5t-42 -111t-26.5 -113t-12.5 -119.5h45q3 73 18 127t42.5 102.5t68.5 97.5t96 111q24 27 52.5 62t52.5 78t40.5 94t16.5 110q0 77 -29 138t-81 103t-123.5 64.5t-155.5 22.5q-91 0 -161 -25t-117.5 -66.5t-72 -95.5t-24.5 -112zM340 88 q0 -28 10 -49.5t27 -36.5t38 -23t44 -8q20 0 40 7.5t36.5 22.5t27 36.5t10.5 50.5q0 26 -10 47.5t-26 37t-36.5 24t-41.5 8.5q-23 0 -44.5 -8.5t-38 -24.5t-26.5 -37.5t-10 -46.5z" />
<glyph unicode="@" horiz-adv-x="1962" d="M100 463q0 -109 25 -219.5t75.5 -213t126.5 -192t177 -156t227 -105t277 -38.5q144 0 263 34t214.5 88.5t168.5 124t125 140.5t84.5 137.5t45.5 114.5h-60q-21 -47 -54 -107.5t-82 -124t-115 -125t-152 -109.5t-193.5 -77.5t-238.5 -29.5q-138 0 -252.5 32.5t-205 89.5 t-157.5 135.5t-111.5 170.5t-66.5 194.5t-22 206.5q0 146 32.5 276t91.5 240.5t141.5 198t181.5 149t211.5 94.5t232.5 33q139 0 261.5 -43.5t214 -126t144.5 -201t53 -268.5q0 -107 -21 -199t-56 -167.5t-80.5 -134t-94 -98.5t-97 -60.5t-89.5 -20.5q-24 0 -39.5 9.5 t-24.5 22t-12.5 25.5t-3.5 21q0 24 9 67t23 97t31.5 114.5t34.5 119.5l119 415l-162 -24l-32 -115q-4 18 -14.5 43.5t-31 48t-53.5 38.5t-82 16q-59 0 -124 -30.5t-128.5 -83.5t-121 -124.5t-101.5 -152.5t-70 -168.5t-26 -172.5q0 -56 15.5 -100.5t41.5 -75t59.5 -47 t69.5 -16.5q60 0 117 29t109.5 72.5t99 95.5t84.5 98q-11 -63 -15.5 -117t7.5 -93.5t46.5 -62t102.5 -22.5q121 0 225.5 57t182 156t122 232.5t44.5 287.5q0 174 -59 307.5t-160.5 223.5t-237 136t-287.5 46q-113 0 -230 -28.5t-226 -86t-205 -142.5t-167.5 -198t-113 -253 t-41.5 -308zM680 305q0 44 17 109.5t46.5 137.5t69.5 144t87 129.5t98 93t102 35.5q49 0 81 -28.5t43 -82.5t-1.5 -132t-51.5 -176q-27 -69 -69 -136.5t-92.5 -121t-105 -86.5t-105.5 -33q-19 0 -40 9t-38.5 27t-29 45.5t-11.5 65.5z" />
<glyph unicode="A" horiz-adv-x="1530" d="M16 0h445v39q-74 6 -111 21.5t-47.5 41.5t-0.5 62t30 84l96 225h547l84 -203q17 -43 31 -84q10 -30 10 -55q0 -9 -1 -18q-5 -32 -36.5 -52.5t-104.5 -21.5v-39h555v39q-44 3 -75.5 12t-58 33t-51.5 68t-56 118l-490 1172h-37l-495 -1161q-25 -58 -48 -102t-49.5 -74 t-59 -46.5t-77.5 -19.5v-39zM461 549l246 571l239 -571h-485z" />
<glyph unicode="B" horiz-adv-x="1384" d="M37 0h663q91 0 161.5 6t126 18.5t97.5 31.5t76 46t60.5 61t44.5 71t27.5 75.5t9.5 75.5q0 60 -19 114t-58 98t-99.5 76t-143.5 48q64 20 112 51.5t80 72t48 88.5t16 99q0 42 -9.5 86.5t-34 86t-67 79t-108.5 65t-158.5 44t-216.5 16.5h-608v-37h51q42 0 71.5 -11.5 t49.5 -33.5q29 -35 29 -166v-911q0 -60 -6 -98.5t-17 -55.5q-39 -57 -127 -57h-51v-39zM438 102v578q29 6 74 8t111 2q107 0 189.5 -23.5t138 -66.5t84 -102t28.5 -129q0 -65 -25 -119t-74 -93t-120.5 -61t-165.5 -22q-60 0 -119 7t-121 21zM438 776v543q42 11 89 15.5 t100 4.5q100 0 173.5 -24t122.5 -64.5t73 -94.5t24 -114q0 -66 -21.5 -118t-67.5 -88t-118.5 -55t-175.5 -19q-62 0 -110 2.5t-89 11.5z" />
<glyph unicode="C" horiz-adv-x="1421" d="M76 684q0 -144 46.5 -274.5t134.5 -228.5t215.5 -156t289.5 -58q100 0 184 22t155.5 67t131.5 113.5t113 160.5l-31 22q-62 -88 -117.5 -145t-111.5 -90t-115 -45.5t-129 -12.5q-119 0 -216.5 40.5t-167 119.5t-107.5 195.5t-38 267.5q0 176 37 305t103.5 214t158 126 t199.5 41q82 0 154 -23t131.5 -71.5t106.5 -125.5t79 -185h33l-33 479h-37q-12 -50 -35 -74.5t-51 -24.5q-16 0 -45 15.5t-73.5 34t-105 34t-140.5 15.5q-108 0 -203.5 -27.5t-175.5 -77.5t-143 -120t-107 -154t-67 -180.5t-23 -198.5z" />
<glyph unicode="D" horiz-adv-x="1538" d="M37 0h631q203 0 351.5 55.5t245.5 152.5t144 226.5t47 278.5q0 83 -15.5 159.5t-44 144.5t-68.5 125t-89 101q-50 44 -110.5 75.5t-137 51.5t-170.5 29.5t-211 9.5h-573v-37h53q40 0 69.5 -11.5t51.5 -33.5q27 -36 27 -166v-911q0 -60 -6 -98.5t-17 -55.5 q-17 -29 -48.5 -43t-76.5 -14h-53v-39zM438 102v1198q62 17 114.5 24t98.5 7q124 0 229 -43.5t180.5 -125t118 -198t42.5 -262.5q0 -147 -43 -264.5t-118.5 -199t-178.5 -124.5q-101 -42 -217 -42h-5q-45 0 -100 8t-121 22z" />
<glyph unicode="E" horiz-adv-x="1300" d="M45 0h1085l123 354h-43q-49 -87 -86.5 -141t-80.5 -84.5t-99 -41.5t-143 -11h-238q-50 0 -75 12t-34.5 33t-9.5 49v63v465h310q71 0 112 -12t63 -37t31 -65t17 -95h39v490h-39q-8 -54 -17 -92t-30.5 -63t-62.5 -36.5t-113 -11.5h-310v557h390q62 0 104.5 -8.5t70 -24.5 t43.5 -37.5t25.5 -47t15 -54.5t13.5 -59h41l-17 307h-1085v-37h49q44 0 75.5 -11.5t49.5 -31.5q27 -29 27 -164v-915q0 -46 -2.5 -76.5t-7.5 -50t-13 -31t-18 -20.5q-11 -9 -26.5 -15.5t-31.5 -10.5t-30 -5.5t-23 -1.5h-49v-39z" />
<glyph unicode="F" horiz-adv-x="1184" d="M35 0h604v39h-51q-37 0 -72.5 13.5t-56.5 39.5q-16 16 -19.5 53t-3.5 105v442h256q53 0 88.5 -12t57 -37t30.5 -62t9 -87h38v477h-38q-8 -55 -20.5 -91.5t-33.5 -58.5t-53 -31.5t-78 -9.5h-256v553h312q77 0 128.5 -12t86 -39t57 -71.5t41.5 -108.5h37l-15 307h-1048v-37 h51q34 0 66.5 -12.5t54.5 -34.5q15 -15 22 -51.5t7 -112.5v-911q0 -127 -25 -160q-42 -51 -125 -51h-51v-39z" />
<glyph unicode="G" horiz-adv-x="1538" d="M74 684q0 -150 53 -281t153.5 -228t245.5 -152.5t328 -55.5q133 0 255.5 29.5t240.5 97.5v430q0 57 5 95t17 57q28 55 111 55h24v37h-544v-37q57 -2 93 -10t56.5 -30t27.5 -61.5t7 -105.5v-407q-69 -42 -142.5 -60t-148.5 -18q-117 0 -216.5 51t-172.5 142.5t-114 218.5 q-40 124 -40 271v7q1 136 35.5 253t101.5 203.5t165.5 135.5t226.5 49q79 0 149.5 -20.5t129.5 -65t106.5 -115.5t81.5 -172h34l-34 445h-39q-3 -28 -9 -45.5t-13 -27.5t-14.5 -13.5t-14.5 -3.5q-20 0 -51 14t-79 31t-114 31t-154 14q-122 0 -225 -32t-186 -87.5 t-146 -129.5t-105 -158.5t-63.5 -174.5t-21.5 -176z" />
<glyph unicode="H" horiz-adv-x="1538" d="M37 0h604v39h-51q-37 0 -73 13.5t-54 35.5q-14 17 -20.5 54t-6.5 108v430h658v-430q0 -65 -7.5 -104.5t-19.5 -55.5q-39 -51 -125 -51h-51v-39h604v39h-51q-37 0 -73 12.5t-54 38.5q-9 12 -14 25.5t-7.5 32.5t-3 43.5t-0.5 58.5v911q0 42 0.5 68.5t3.5 44t9 29.5t18 24 q22 22 56 33.5t65 11.5h51v37h-604v-37h51q35 0 68 -12.5t53 -32.5q15 -15 23 -52t8 -114v-405h-658v405q0 40 2.5 68t6.5 47t10 31t14 20q22 25 54 35t67 10h51v37h-604v-37h51q15 0 33.5 -4t35.5 -10.5t31 -15t21 -17.5q8 -11 13.5 -24t9 -32t5 -45t1.5 -63v-911 q0 -127 -25 -160q-42 -51 -125 -51h-51v-39z" />
<glyph unicode="I" horiz-adv-x="709" d="M53 0h604v39h-51q-18 0 -38 4.5t-38 11.5t-31.5 16t-19.5 17q-12 19 -18 56.5t-6 105.5v911q0 63 7 103t19 57q42 51 125 51h51v37h-604v-37h51q36 0 71.5 -14t55.5 -39q8 -9 12.5 -21.5t7 -31t3 -44t0.5 -61.5v-911q0 -129 -25 -160q-21 -26 -51 -38.5t-74 -12.5h-51 v-39z" />
<glyph unicode="J" horiz-adv-x="829" d="M45 127q0 -30 13 -59t39.5 -51.5t65.5 -36t91 -13.5q32 0 71.5 7.5t79.5 27.5t77.5 55t67 91t47 135.5t17.5 187.5v690q0 124 25 160q22 25 52 38t73 13h51v37h-602v-37h49q21 0 42 -5t39 -13t32 -18.5t20 -20.5q13 -20 17 -56t4 -98v-962q0 -44 -7.5 -74t-18.5 -49 t-25 -27t-27 -8q-22 0 -35.5 14.5t-23.5 36t-20 47t-23.5 47t-34 36t-51.5 14.5q-20 0 -39 -6.5t-33.5 -19.5t-23.5 -34t-9 -49z" />
<glyph unicode="K" horiz-adv-x="1538" d="M37 0h600v39h-49q-38 0 -73.5 13t-53.5 38q-8 12 -13 25.5t-7.5 32.5t-3.5 43.5t-1 58.5v332l62 61l424 -422q23 -23 38.5 -40t24.5 -30.5t12.5 -24.5t1.5 -22q-3 -27 -28.5 -46t-85.5 -19v-39h671v39q-46 5 -90.5 16.5t-89.5 34.5q-92 46 -219 174l-520 518l215 215 q67 67 112 113t75.5 76.5t50.5 49t35.5 31t31.5 23.5t39 25q28 18 51 29t43.5 17t40 8.5t41.5 2.5v37h-520v-37h33q52 0 73 -19t21 -40q0 -19 -6.5 -36.5t-20.5 -37.5q-32 -48 -125 -147t-247 -242q-62 -57 -97.5 -89.5t-46.5 -41.5v442q0 45 2.5 74t7 47.5t11 29.5t14.5 19 q22 22 54 31.5t63 9.5h49v37h-600v-37h49q17 0 36 -4.5t36.5 -11t31 -14.5t19.5 -15q14 -17 20.5 -56t6.5 -110v-911q0 -130 -23 -160q-42 -51 -127 -51h-49v-39z" />
<glyph unicode="L" horiz-adv-x="1300" d="M39 0h1096l122 383l-36 6q-20 -47 -37 -81.5t-35 -61.5t-38.5 -49t-47.5 -45q-22 -20 -47.5 -32t-60 -18.5t-81 -9t-110.5 -2.5h-143q-46 0 -79.5 5t-55 23t-32 53t-10.5 95v928q0 60 15 95t42.5 53t65.5 23t84 5v39h-612v-39q46 0 84 -5t65.5 -23t42.5 -53t15 -95v-979 q0 -60 -15 -95t-42.5 -53t-65.5 -23t-84 -5v-39z" />
<glyph unicode="M" horiz-adv-x="1894" d="M37 0h489v39h-49q-87 0 -121 43q-30 33 -30 164v940l544 -1186h35l545 1186v-940q0 -62 -6 -99t-17 -53q-20 -29 -50.5 -42t-78.5 -13h-49v-39h600v39h-49q-84 0 -121 43q-30 33 -30 164v919q0 60 5.5 97.5t16.5 56.5q41 53 129 53h49v37h-399l-504 -1102l-512 1102h-397 v-37q31 0 54.5 -3t41 -8t31 -12t24.5 -16q28 -21 36.5 -61.5t8.5 -106.5v-919q0 -62 -5.5 -99t-14.5 -53q-22 -29 -52 -42t-75 -13h-49v-39z" />
<glyph unicode="N" horiz-adv-x="1538" d="M12 1372q62 0 103.5 -19t68 -43.5t41.5 -49t25 -35.5v-979q0 -121 -25 -152q-17 -29 -48.5 -42t-78.5 -13h-49v-39h492v39h-49q-84 0 -123 43q-29 34 -29 164v866l932 -1135h37v1188q0 60 5 97.5t17 56.5q17 26 49.5 39.5t77.5 13.5h49v37h-489v-37h47q84 0 123 -45 q29 -29 29 -162v-813l-861 1057h-344v-37z" />
<glyph unicode="O" horiz-adv-x="1538" d="M74 709q0 -166 53.5 -303t146.5 -234.5t218.5 -151t269.5 -53.5q98 0 187.5 25.5t166.5 73t139.5 114.5t106.5 150t68 180t24 203q0 105 -24.5 200.5t-68.5 176.5t-105.5 146t-136.5 111t-161 70.5t-178 24.5q-100 0 -191.5 -25t-170 -71.5t-142 -112t-108.5 -147 t-69.5 -177t-24.5 -200.5zM313 715q0 151 29.5 272.5t86.5 206t140 130.5q81 45 184 44h5q117 -1 203.5 -47t144.5 -133q58 -88 86 -214q28 -122 27 -277v-11q-1 -167 -35 -288.5t-95 -201.5t-145 -118q-82 -38 -179 -37h-5q-109 1 -192.5 50.5t-140 138t-85.5 212.5 t-29 273z" />
<glyph unicode="P" horiz-adv-x="1184" d="M37 0h602v39h-53q-81 0 -119 47q-17 15 -24 56.5t-7 107.5v391q40 -5 65.5 -7t44.5 -2.5t34 -0.5h36h9q133 -1 225 29q94 30 152 83.5t83 124.5t25 152q0 55 -12.5 99.5t-34.5 80.5t-51.5 65.5t-63.5 55.5q-37 28 -83.5 45t-98 26.5t-106.5 13t-109 3.5h-514v-37h51 q42 0 71.5 -11.5t49.5 -33.5q27 -36 27 -166v-911q0 -62 -6 -100t-15 -54q-37 -57 -127 -57h-51v-39zM436 711v596q42 9 76.5 14.5t60.5 5.5q75 0 131 -27t93.5 -72.5t56.5 -105.5q18 -57 18 -117v-6q-1 -68 -22.5 -123.5t-57.5 -95t-84 -61t-102 -21.5q-31 0 -73.5 2.5 t-96.5 10.5z" />
<glyph unicode="Q" horiz-adv-x="1538" d="M74 707q0 -114 26.5 -222.5t86.5 -203t156.5 -170.5t236.5 -125q67 -75 164.5 -145t212 -126t240.5 -91.5t251 -41.5v35q-81 6 -151 30.5t-132.5 70t-118.5 112t-108 156.5q117 35 212.5 103.5t163.5 162t105 209t37 244.5q0 161 -53.5 296.5t-146 233.5t-216 152.5 t-264.5 54.5q-99 0 -189.5 -25t-168.5 -71t-141.5 -111.5t-108.5 -147.5t-69.5 -178t-24.5 -202zM313 707q0 160 31 283t89 206t141 125.5t188 42.5q111 0 196.5 -48.5t143.5 -138t87.5 -216t29.5 -283.5q0 -150 -30.5 -268.5t-89 -201t-143.5 -126.5q-83 -43 -189 -43h-5 q-109 1 -193 49.5t-141 136.5t-86 210.5t-29 271.5z" />
<glyph unicode="R" horiz-adv-x="1421" d="M37 0h604v39h-55q-81 0 -119 47q-31 30 -31 164v409q18 -3 33 -4t31.5 -0.5t36.5 1.5t49 3l477 -659h377v39q-59 6 -104.5 19.5t-87 40.5t-81.5 71t-88 111l-288 405q88 20 153 54.5t108 81t64 104t21 123.5q0 60 -19.5 112t-53.5 94t-80.5 72.5t-100.5 48.5 q-54 17 -138 25t-196 8h-512v-37h53q40 0 69.5 -11.5t51.5 -33.5q27 -36 27 -166v-911q0 -123 -21 -154q-35 -57 -127 -57h-53v-39zM436 725v588q108 18 164 18q69 -2 125 -24t95.5 -61t61 -93.5t21.5 -120.5q0 -67 -25 -123t-75 -97t-127 -64t-180 -23h-60z" />
<glyph unicode="S" horiz-adv-x="1184" d="M135 1071q0 -65 17 -118t62 -104t125 -106.5t206 -126.5q93 -52 157.5 -91.5t105 -77t59 -77t18.5 -91.5q0 -46 -19.5 -88t-56.5 -73.5t-89 -50t-116 -18.5q-75 0 -145.5 22t-127 70t-95.5 124.5t-52 185.5h-37v-484h37q7 46 22.5 63.5t40.5 17.5q26 0 61 -12.5t82 -28 t106 -28t131 -12.5q97 0 179 31t140.5 84.5t91.5 125t33 152.5q0 87 -40 163t-111 130q-38 28 -104.5 69t-166.5 95q-104 56 -172 98.5t-107.5 79t-55 71.5t-15.5 77q0 44 19.5 83.5t53 69t79 47t96.5 17.5q74 0 140.5 -26t119 -77.5t87 -127.5t44.5 -175h39v488h-39 q-11 -45 -27.5 -62t-39.5 -17t-53.5 12.5t-70.5 27t-90 27t-112 12.5q-95 0 -170.5 -30t-129 -81t-82 -118t-28.5 -142z" />
<glyph unicode="T" horiz-adv-x="1296" d="M51 1079h47q12 144 88 199q15 13 30.5 21.5t37 14t51.5 7.5t72 2h168v-1077q0 -62 -5.5 -99t-15.5 -53q-21 -29 -51.5 -42t-75.5 -13h-51v-39h598v39h-49q-84 0 -121 43q-14 17 -21.5 57.5t-7.5 106.5v1077h199q71 0 115 -17.5t78 -52.5q12 -12 22 -26.5t18.5 -34.5 t14.5 -47.5t10 -65.5h45l-12 330h-1169z" />
<glyph unicode="U" horiz-adv-x="1538" d="M31 1372h32q42 0 71 -9.5t46 -31.5q19 -21 27 -63t8 -107v-553v-92q0 -49 5 -102t17.5 -106.5t37 -103.5t64.5 -93t99 -75t140.5 -50.5t189.5 -18.5q78 0 139.5 9.5t111.5 28.5t91 48.5t80 69.5q37 39 61 88t38 106.5t19 123.5t5 139v573q0 119 22 147q23 36 53.5 54 t73.5 18h54v37h-500v-37h53q79 0 121 -45q29 -35 29 -166v-571q0 -29 -0.5 -82.5t-9 -113t-29 -117t-60.5 -95.5q-19 -18 -50.5 -40t-74 -41.5t-96 -32.5t-117.5 -13q-90 0 -151.5 23.5t-102.5 63t-63.5 90t-33.5 105t-13 108.5t-2 100v616q0 59 7 97.5t19 58.5 q9 14 18.5 24.5t21.5 17t27.5 10t37.5 3.5h53v37h-569v-37z" />
<glyph unicode="V" horiz-adv-x="1538" d="M18 1372q50 -5 80.5 -14.5t53.5 -28.5q9 -8 17.5 -14.5t18.5 -20.5t23.5 -39.5t32.5 -70.5l526 -1217h39l491 1202q44 107 99 156q18 19 46.5 30t65.5 17v37h-434v-37q39 -7 63.5 -14.5t39.5 -16t23 -17t14 -17.5q10 -16 10 -39q1 -17 -5 -37q-12 -48 -44 -125l-332 -819 l-361 827q-35 81 -44 130q-3 16 -3 29q0 29 13 48q14 22 47.5 33.5t95.5 17.5v37h-576v-37z" />
<glyph unicode="W" horiz-adv-x="2011" d="M29 1372q91 0 127 -45q9 -7 15.5 -15.5t15.5 -27.5t21.5 -53t33.5 -92l417 -1172h39l320 901l319 -901h43l392 1139q23 68 40.5 111.5t26.5 60.5q16 29 33 47.5t36 29t40 14t45 3.5v37h-420v-37q49 0 84 -9.5t55 -35.5q11 -15 14 -33.5t-1.5 -44.5t-15 -61t-26.5 -82 l-268 -778l-272 768q-23 65 -34 110.5t-11 73.5q0 45 27.5 68.5t84.5 23.5h37v37h-549v-37q45 0 70 -9t45 -26q22 -18 45 -58.5t42.5 -86.5t35.5 -90.5t24 -71.5t9 -29l-234 -673l-276 792q-20 58 -30 93.5t-13 57t0 33t8 21.5q24 47 100 47h25v37h-520v-37z" />
<glyph unicode="X" horiz-adv-x="1538" d="M14 0h502v39q-41 1 -67.5 8t-41.5 17.5t-20.5 24.5t-5.5 30q0 13 2 24t9 24t19 30.5t33 44.5l297 379l238 -363q29 -45 45 -73t21.5 -46.5t1.5 -32t-15 -28.5q-15 -22 -43.5 -30.5t-81.5 -8.5v-39h604v39q-46 3 -81 13.5t-71.5 41t-80.5 86.5t-107 150l-303 452l283 357 q46 58 81.5 100.5t71.5 70.5t77.5 43t99.5 19v37h-502v-37q38 -1 62 -3.5t39 -7.5t23.5 -12.5t16.5 -17.5q12 -15 12 -34q0 -13 -6 -29q-14 -37 -59 -94l-250 -318l-217 324q-24 36 -36 61.5t-13.5 44t7 32t24.5 25.5q34 26 114 29v37h-651v-37q52 -3 96.5 -15.5t87.5 -42.5 t88.5 -81t100.5 -131l278 -408l-334 -422q-35 -44 -76.5 -85.5t-86.5 -74t-92 -52.5t-93 -21v-39z" />
<glyph unicode="Y" horiz-adv-x="1538" d="M18 1372q42 0 80 -18.5t64 -38.5q29 -23 53.5 -59t58.5 -87l385 -589v-334q0 -62 -5.5 -99t-14.5 -53q-22 -29 -52 -42t-75 -13h-49v-39h598v39h-45q-89 0 -125 43q-31 32 -31 164v352l342 535q32 51 57.5 87.5t47.5 59.5q22 25 47 42.5t49 28.5t44.5 16t33.5 5h26v37 h-491v-37q29 0 50 -4t35.5 -10.5t24 -15.5t15.5 -19q20 -26 20 -54q0 -14 -5 -29q-14 -45 -60 -116l-279 -434l-293 453q-32 51 -47.5 85.5t-15.5 51.5q0 28 15 46t36 28.5t43 14t37 3.5h31v37h-605v-37z" />
<glyph unicode="Z" horiz-adv-x="1300" d="M29 0h1147l65 373l-33 6q-29 -90 -60.5 -148.5t-68.5 -87.5q-69 -57 -202 -57h-578l926 1323h-1043l-28 -352h39q8 51 17 87t19 61.5t21.5 42t25.5 28.5q31 26 77.5 38.5t127.5 12.5h449l-901 -1288v-39z" />
<glyph unicode="[" horiz-adv-x="709" d="M195 -317v-11h426v45h-211q-12 0 -23 5.5t-19.5 14t-14 19.5t-5.5 23v1468q0 12 5.5 23t14 19.5t19.5 14t23 5.5h211v47h-426v-1673z" />
<glyph unicode="\" horiz-adv-x="655" d="M18 1384l449 -1419h104l-450 1419h-103z" />
<glyph unicode="]" horiz-adv-x="709" d="M86 -283v-45h426v11v1673h-426v-47h211q12 0 23 -5.5t19.5 -14t13.5 -19.5t5 -23v-1468q0 -12 -5 -23t-13.5 -19.5t-19.5 -14t-23 -5.5h-211z" />
<glyph unicode="^" horiz-adv-x="840" d="M120 847l68 -7l223 437l243 -431l70 2l-284 653h-39z" />
<glyph unicode="_" horiz-adv-x="1024" d="M0 -164v-76h1024v76h-1024z" />
<glyph unicode="`" horiz-adv-x="799" d="M0 1370q0 -14 9.5 -27t23.5 -24.5t30 -22t29 -18.5l307 -195h86l-295 297q-29 29 -63 49.5t-61 20.5q-31 0 -48.5 -21.5t-17.5 -58.5z" />
<glyph unicode="a" horiz-adv-x="946" d="M76 225q0 -55 16.5 -100t46.5 -76.5t71.5 -49t92.5 -17.5q37 0 65.5 6t60.5 22.5t73 47t104 79.5q0 -45 9 -75t24 -48t35 -25t43 -7q111 0 227 155v60q-29 -29 -46.5 -45.5t-29 -25t-20 -11t-17.5 -2.5q-20 0 -30 11.5t-15 39.5q-2 15 -4 57.5t-2 108.5v325q0 75 -11 135 t-45 102t-97 64.5t-166 22.5q-68 0 -131 -16t-111 -46.5t-77 -75t-29 -100.5q0 -48 23 -74t65 -26q38 1 63 27q23 25 23 64v7l-2 62q3 49 40.5 83t102.5 34q45 0 78.5 -13t55.5 -42.5t33 -77t11 -115.5v-39q-113 -39 -196 -74.5t-142 -68.5t-96.5 -65t-58.5 -64t-29 -65 t-8 -69zM252 274q0 35 10 68t46.5 67.5t107 73.5t190.5 86v-364q-64 -53 -116 -80q-48 -25 -87 -25h-6q-30 1 -56.5 14.5t-46 36.5t-31 54.5t-11.5 68.5z" />
<glyph unicode="b" d="M-8 1364l14 -37q49 16 73 16q25 0 42 -14q9 -8 15.5 -18t10 -35t5.5 -71.5t2 -127.5v-985q92 -63 178 -93t168 -30q98 0 187 41t156.5 114t107.5 173t40 217q0 109 -29.5 195.5t-79.5 146.5t-116 91.5t-139 31.5q-161 0 -299 -191v691h-49zM328 152v571q39 37 70.5 59 t57 33.5t47 15t40.5 3.5q54 0 103 -25.5t85.5 -74.5t58 -119t21.5 -160q0 -102 -23 -178.5t-60 -127.5t-83 -76.5t-92 -25.5q-60 0 -117 27t-108 78z" />
<glyph unicode="c" horiz-adv-x="946" d="M72 475q0 -116 32 -209.5t87 -159.5t128.5 -101.5t157.5 -35.5q70 0 136 29t119.5 81t90.5 124t51 159l-28 15q-31 -74 -64.5 -121t-70.5 -74t-77 -37t-83 -10q-75 0 -132.5 35.5t-96.5 95t-59.5 137.5t-20.5 162q0 74 17 137t49 109.5t78.5 73t105.5 26.5 q72 0 106 -34.5t39 -90.5q3 -43 15.5 -67.5t29.5 -36.5t36 -15t34 -3q49 0 73.5 26.5t24.5 61.5q0 40 -23.5 78t-68.5 75q-91 74 -232 74q-93 0 -175.5 -36.5t-144.5 -102.5t-98 -159t-36 -206z" />
<glyph unicode="d" d="M70 436q0 -101 31.5 -186.5t85 -147.5t124.5 -97.5t150 -35.5q83 0 149 35.5t129 101.5v-137h47l287 119l-12 37q-42 -16 -69 -18t-46 14q-12 8 -18.5 20.5t-9.5 39t-4 73t-1 123.5v1102h-47l-286 -115l14 -37q42 14 69 16.5t44 -14.5q9 -9 15 -20t10 -36t5.5 -71 t1.5 -125v-176q-42 42 -93.5 61t-113.5 19q-74 -1 -137 -24t-114.5 -63t-90.5 -93.5t-66 -113.5t-40.5 -124.5t-13.5 -126.5zM262 520q0 91 20.5 165.5t55.5 126.5t82 80q44 26 93 26h7q51 -2 92 -25.5t69 -59.5t43 -78.5t15 -82.5v-492q-45 -48 -89.5 -71t-94.5 -23 q-50 1 -102 25.5t-94.5 76.5t-69.5 134t-27 198z" />
<glyph unicode="e" horiz-adv-x="946" d="M78 465q0 -114 33 -205.5t90 -156t132.5 -99.5t160.5 -35q82 0 149.5 33t117.5 86.5t81.5 121.5t42.5 138l-33 21q-26 -66 -55 -110t-63.5 -70.5t-74.5 -37.5q-37 -10 -78 -10h-8q-70 1 -133 32t-111 89t-76 142t-28 190h660q0 91 -27.5 162.5t-76.5 121.5t-116 76.5 t-145 26.5q-97 0 -178 -35t-139.5 -101.5t-91.5 -162.5t-33 -217zM225 653q6 61 28 108.5t54.5 80t72 49t81.5 16.5q26 0 61.5 -10.5t68 -38.5t55 -77.5t22.5 -127.5h-443z" />
<glyph unicode="f" horiz-adv-x="709" d="M78 877h186v-625q0 -45 -2 -75t-6.5 -49.5t-13 -32t-21.5 -23.5q-23 -20 -46 -26.5t-48 -6.5h-43v-39h573v39h-86q-69 0 -102 45q-17 17 -24 59.5t-7 108.5v625h246v75h-246v68q0 100 4 172.5t18.5 118.5t43 68t78.5 22q36 0 62 -14t46 -35t36 -45.5t33 -45t36.5 -34.5 t46.5 -13q18 0 33 8.5t26.5 21t18 27.5t6.5 29q0 36 -24 68t-62 57t-84.5 39.5t-91.5 14.5q-17 0 -53 -4.5t-80 -20t-91.5 -45.5t-86.5 -81.5t-64 -128t-25 -183.5v-64h-186v-75z" />
<glyph unicode="g" d="M63 -262q0 -36 35.5 -71.5t94 -64t134 -46t154.5 -17.5q114 0 211.5 31.5t169 83.5t112 119t40.5 139q0 55 -19.5 93t-50 63t-68.5 38.5t-75 20t-69 8t-50 2.5q-116 3 -184.5 6t-106.5 6.5t-54 9.5t-26 15q-16 15 -16.5 35t10 41.5t29 42t39.5 35.5q37 -11 73.5 -16 t71.5 -5q89 0 159 26t118.5 70t73.5 103q24 56 24 118q0 64 -15 111t-42 84h122h12q11 0 25.5 1.5t20.5 6.5q6 7 8 21t2 20q0 38 -14 41q-15 3 -27.5 3.5t-28 -1t-37 -3t-53.5 -1.5q-49 0 -86 11t-74.5 24.5t-81 25t-104.5 11.5q-89 0 -159.5 -28.5t-119 -76t-74.5 -109 t-26 -128.5q0 -43 11.5 -86t34 -81.5t56.5 -70t79 -51.5q-54 -46 -86.5 -80t-50.5 -60t-23.5 -46.5t-5.5 -38.5q0 -37 25 -60.5t73 -54.5q-56 -56 -93 -97.5t-59 -73t-30.5 -55t-8.5 -44.5zM213 -182q0 24 6.5 46t19.5 43.5t31 44t41 48.5q63 -9 153 -13.5t208 -9.5 q82 -4 134 -11t81 -19t40 -30.5t11 -43.5q0 -38 -22 -75t-67.5 -66t-114 -47.5t-161.5 -18.5q-80 0 -146 11.5t-113.5 31.5t-74 48t-26.5 61zM322 682q0 65 14 112t38.5 77t57.5 44.5t70 14.5q48 0 86.5 -24t65.5 -67t41 -103.5t14 -133.5q0 -65 -14 -111t-38 -75.5 t-56.5 -43.5t-70.5 -14q-50 0 -88.5 24t-65 67t-40.5 102.5t-14 130.5z" />
<glyph unicode="h" d="M12 1364l17 -37q23 9 42 12.5t33 3.5q42 0 56 -34t14 -109v-1005q0 -43 -5 -73t-20.5 -48.5t-44 -26.5t-75.5 -8v-39h471v39q-51 0 -81 6.5t-45.5 24t-20.5 47.5t-5 78v522q39 45 71.5 72t61 41.5t54 19t49.5 4.5q62 0 94 -30t45 -75.5t13.5 -98.5t0.5 -99v-356 q0 -48 -7 -78.5t-24 -48t-47 -23.5t-75 -6v-39h471v39q-48 0 -76.5 7.5t-43.5 25.5t-19.5 48t-4.5 75v356q0 46 -1.5 96t-9 97.5t-22.5 90t-42.5 74.5t-69.5 51t-102 19q-38 0 -76.5 -7.5t-78 -29t-79.5 -60t-82 -100.5v697h-49z" />
<glyph unicode="i" horiz-adv-x="592" d="M66 864l14 -37q48 17 74 17q42 0 56.5 -35.5t14.5 -103.5v-510q0 -48 -6 -78t-22 -47.5t-44 -24t-73 -6.5v-39h465v39q-45 0 -73 6t-44.5 23.5t-22.5 48t-6 78.5v784h-45zM207 1276q0 -47 30 -77t76 -30q22 0 41.5 8.5t33.5 23t22 34t8 41.5q0 21 -8.5 40t-22.5 33.5 t-33 22.5t-41 8q-21 0 -40.5 -7.5t-34 -21.5t-23 -33t-8.5 -42z" />
<glyph unicode="j" horiz-adv-x="592" d="M-164 -356q1 -16 12 -34.5t33 -34t57 -26t85 -10.5q81 0 150 29t119.5 88t78.5 150t28 214v959h-45l-288 -115l12 -37q45 16 71 17t46 -15q8 -7 14 -21.5t9.5 -42.5t5 -73t1.5 -112v-678q0 -48 -1 -98t-9.5 -90t-28.5 -65.5t-57 -25.5q-17 0 -39 11t-45 34q-34 34 -60 50 t-63 16q-35 0 -60.5 -26t-25.5 -64zM203 1276q0 -47 30 -77t76 -30q23 0 42.5 8.5t34 23.5t22.5 34.5t8 40.5t-9.5 40.5t-24.5 34t-34 23t-39 8.5q-21 0 -40.5 -8.5t-34 -23t-23 -34t-8.5 -40.5z" />
<glyph unicode="k" d="M14 0h488v39q-33 0 -54 1.5t-34.5 5t-22.5 10.5t-18 18q-7 8 -11.5 18.5t-7 26.5t-3.5 39t-1 57v311l291 -368q15 -20 24 -34t13 -24.5t3.5 -19t-3.5 -17.5q-5 -14 -19 -19t-45 -5v-39h463v39q-34 0 -56.5 1t-33.5 7q-17 10 -29 16.5t-24 14.5t-25 20.5t-32 34t-47 55.5 t-68 84l-250 312l250 223q35 32 66 53t59 33q29 12 63.5 18.5t77.5 8.5v32h-414v-32q41 -4 57.5 -18t16.5 -36q0 -8 -2.5 -16t-12.5 -20.5t-29.5 -31t-53.5 -46.5l-240 -203v930h-49l-287 -115l21 -37q25 10 43 13.5t30.5 3t20.5 -5t14 -9.5q9 -8 15 -17.5t9 -35t4 -72.5 t1 -129v-866q0 -57 -6.5 -90.5t-20.5 -48.5q-17 -19 -49 -25t-82 -6v-39z" />
<glyph unicode="l" horiz-adv-x="592" d="M61 1364l19 -37q22 9 38.5 12.5t28.5 3.5q13 0 23 -4t20 -10q8 -8 13.5 -17t9 -34t5 -71.5t1.5 -127.5v-864q0 -66 -8 -97t-21 -46q-8 -11 -17.5 -17.5t-22 -10t-29.5 -4.5t-41 -1v-39h467v39q-31 0 -52 2.5t-35.5 7t-23.5 11.5t-16 16t-12 20t-8.5 27t-5 38t-1.5 54 v1264h-45z" />
<glyph unicode="m" horiz-adv-x="1657" d="M14 864l17 -37q44 16 72 16q9 1 15 -1q30 -6 42.5 -38t13 -88.5t0.5 -135.5v-365q0 -56 -5.5 -90.5t-21 -53.5t-43.5 -25.5t-73 -6.5v-39h471v39q-46 0 -76 5t-47 23t-24 53t-7 95v512q22 23 48.5 46.5t57.5 42t65.5 30.5t72.5 12q37 0 67 -12.5t51 -40t32.5 -71.5 t11.5 -107v-412q0 -45 -1.5 -78t-15.5 -54.5t-46 -32.5t-93 -11v-39h483v39q-54 0 -85 8.5t-46 29t-18.5 54t-3.5 84.5v512q38 38 72.5 63t65.5 39.5t58 20.5t50 6q40 0 69.5 -12t49 -39t29 -70.5t9.5 -107.5v-412q0 -48 -3 -81.5t-17.5 -54.5t-45.5 -30.5t-87 -9.5v-39h471 v39q-43 0 -71 7t-44 26.5t-22.5 54t-6.5 88.5v412q0 96 -17.5 163t-50.5 109t-79.5 61t-104.5 19q-40 0 -77 -8.5t-76.5 -31t-83 -61.5t-96.5 -100q-12 52 -35 90t-55 63t-71 36.5t-81 11.5q-35 0 -69.5 -8t-73 -29.5t-84 -61t-103.5 -102.5v201h-45z" />
<glyph unicode="n" d="M10 864l17 -37q40 17 69 17q27 0 43 -15q8 -7 14 -16.5t9.5 -35t5.5 -74.5t2 -134v-354q0 -54 -5.5 -88.5t-21 -54t-43.5 -26.5t-73 -7v-39h473v39q-52 0 -82.5 6.5t-47 25.5t-21.5 53.5t-5 90.5v502q62 68 124 101.5t122 33.5q84 0 116.5 -59.5t32.5 -188.5v-389 q0 -55 -4.5 -89.5t-20 -53.5t-46.5 -26t-84 -7v-39h477v39q-48 0 -77 7.5t-44.5 27.5t-21 54t-5.5 87v408q0 81 -13 146.5t-42 112t-76.5 72t-117.5 25.5q-151 0 -320 -199v199h-43z" />
<glyph unicode="o" d="M72 467q0 -99 33 -189t92.5 -159t142 -109.5t182.5 -40.5q78 0 143 22t117 59.5t91.5 88.5t65.5 109.5t39 121.5t13 124q0 102 -33.5 190.5t-94 154t-145 103t-186.5 37.5q-107 0 -192.5 -44t-145 -116t-91 -164t-31.5 -188zM264 553q0 103 21.5 172.5t55.5 111t76 59 t83 17.5q69 0 124 -38.5t93.5 -105.5t59 -158t20.5 -197q0 -102 -17 -172.5t-47.5 -114t-73.5 -63t-94 -19.5q-68 0 -123.5 41t-95 111t-61 162t-21.5 194z" />
<glyph unicode="p" d="M-12 -418v-39h504v39q-57 2 -89.5 10t-48.5 28.5t-20 55.5t-4 91v288q34 -30 65 -47t59.5 -26t54 -11t48.5 -2q97 0 177.5 43t138 116.5t89 172.5t31.5 211q0 99 -26 184.5t-73 148t-112.5 98.5t-144.5 36q-43 0 -82.5 -11.5t-77 -38t-74 -69.5t-73.5 -106v223h-39 l-297 -119l12 -35q43 17 67 17h5q25 -2 41 -13q13 -9 20 -19.5t10.5 -28t4 -43t0.5 -64.5v-901q0 -59 -4 -95t-20.5 -56.5t-50 -28t-91.5 -9.5zM330 336v356q32 35 59.5 64.5t53.5 50.5t52.5 33t57.5 12q56 0 105.5 -25.5t87 -78.5t59.5 -136t22 -198q0 -89 -20 -159.5 t-56 -119.5t-86.5 -75.5t-111.5 -26.5q-46 0 -82.5 13.5t-63.5 35t-43.5 48.5t-23.5 54q-5 20 -7.5 57.5t-2.5 94.5z" />
<glyph unicode="q" d="M70 434q0 -111 31 -197.5t81.5 -146t114.5 -90.5t129 -31q40 0 76.5 10t73.5 33t77 60.5t86 93.5v-412q0 -59 -7 -93t-25 -51.5t-48 -22.5t-75 -5v-39h485v39q-48 0 -78.5 6.5t-48 25t-23.5 52.5t-6 88v1225h-36q-26 -19 -57 -34.5t-62 -31.5q-37 38 -87.5 52t-109.5 14 q-104 0 -194 -40.5t-156 -113t-103.5 -172.5t-37.5 -219zM246 510q0 100 22.5 175t61 124t90 73.5t108.5 24.5q53 0 92.5 -16.5t66 -46.5t39.5 -72.5t13 -93.5v-449q-24 -27 -46.5 -48t-46 -35.5t-50.5 -21.5t-61 -7q-58 0 -110.5 24.5t-92 73t-63 122.5t-23.5 173z" />
<glyph unicode="r" horiz-adv-x="729" d="M8 864l10 -37q40 17 66 17h5q27 -2 50 -15q9 -10 14.5 -21.5t9.5 -36t5.5 -68.5t1.5 -119v-369q0 -61 -7 -96t-24.5 -53t-46.5 -22.5t-74 -4.5v-39h494v39q-51 0 -83.5 11.5t-51 34.5t-26 57t-7.5 79v459q40 75 76.5 118.5t62.5 43.5q17 0 32.5 -11.5t32.5 -25.5 t37 -25.5t46 -11.5q20 0 37 8t30 21.5t20 31t7 35.5q0 25 -10.5 46.5t-28.5 36.5t-43 23.5t-53 8.5q-127 0 -246 -213v213h-41z" />
<glyph unicode="s" horiz-adv-x="829" d="M104 725q0 -44 11.5 -81t40 -72t77.5 -70t125 -74q78 -40 125.5 -71.5t74 -60t34.5 -58.5q8 -26 8 -57v-7q-1 -29 -12 -54.5t-32 -44.5t-51 -30.5t-69 -11.5q-51 0 -97.5 18.5t-85.5 55.5t-67.5 92t-42.5 127h-34v-340h34q7 14 16 30.5t21 16.5q24 -3 52.5 -13.5 t61 -21.5t68.5 -20t74 -9q64 0 121.5 22t101 59.5t69.5 86.5t26 103q0 91 -55.5 162t-163.5 122l-154 72q-50 23 -81 46t-48 47.5t-22.5 50.5t-4.5 55q1 55 45.5 90t139.5 35q45 0 84 -13t71.5 -43.5t58 -81.5t44.5 -127h34v324h-34q-13 -25 -22.5 -31t-24.5 -6q-12 0 -34 6 t-49.5 12.5t-59.5 12.5t-64 6q-75 0 -132.5 -19.5t-97 -54t-60 -80.5t-20.5 -100z" />
<glyph unicode="t" horiz-adv-x="592" d="M16 881h152v-660q0 -80 16.5 -129.5t43.5 -76.5t60.5 -36.5t67.5 -9.5q31 0 66 12t67.5 37.5t60 64t44.5 91.5h-41q-19 -42 -49 -65q-28 -21 -62 -21h-6q-20 1 -37 8.5t-30 25.5t-20 48t-7 76v635h223v71h-223v314h-31q-22 -52 -38 -85t-29 -55.5t-25 -38t-26 -32.5 q-41 -48 -88 -87t-89 -55v-32z" />
<glyph unicode="u" d="M0 913q45 0 75.5 -5.5t50 -21t28 -44.5t8.5 -76v-426q0 -57 7 -122t32.5 -120.5t74.5 -92t132 -36.5q34 0 66.5 8t69.5 30.5t82 62t105 102.5v-203h47l289 119l-14 37q-23 -9 -46 -12.5t-38 -3.5q-17 0 -29 6.5t-20 22.5t-11.5 44t-3.5 70v700h-327v-39q40 -2 69 -7 t48 -20t27.5 -41.5t8.5 -70.5v-541q-40 -40 -74 -66t-63.5 -41.5t-54 -21.5t-45.5 -6q-52 0 -83 18.5t-47.5 49.5t-22 69.5t-5.5 79.5v637h-336v-39z" />
<glyph unicode="v" d="M16 913q28 -5 45.5 -8t26.5 -8q15 -9 27.5 -19.5t23.5 -24t21.5 -32.5t21.5 -45l342 -807h43l338 819q16 38 31.5 63t32.5 42q14 9 32 13.5t46 6.5v39h-312v-39q28 0 46.5 -2t29.5 -5.5t16.5 -8t8.5 -8.5q12 -17 7 -43t-24 -70l-223 -547l-221 525q-22 49 -22 81 q0 36 22 60q9 11 25 14.5t36 3.5h31v39h-451v-39z" />
<glyph unicode="w" horiz-adv-x="1538" d="M12 913q32 -6 56 -16.5t36 -24.5q16 -14 30 -39t30 -63l307 -801h39l276 611l238 -611h43l317 824q43 108 136 120v39h-301v-39q33 0 52.5 -6t30 -14t14 -17.5t3.5 -15.5q0 -30 -23 -90l-198 -524l-217 547q-8 13 -9.5 27.5t1.5 28t8.5 24t11.5 16.5q15 12 41.5 17 t64.5 7v39h-454v-39q32 -2 53.5 -6t32.5 -10q41 -25 65 -86l54 -141l-205 -447l-205 547q-18 46 -18 75q0 32 18 50q18 15 74 18v39h-402v-39z" />
<glyph unicode="x" d="M29 913q34 -2 58.5 -7t48.5 -21.5t51.5 -49.5t66.5 -90l180 -262l-201 -266q-40 -53 -67.5 -87t-49.5 -53.5t-40 -28t-39 -9.5v-39h311v39q-40 1 -61 13t-28.5 28t-3.5 33.5t15 31.5l207 277l197 -291q7 -10 9 -25.5t-5.5 -30.5t-28 -25.5t-59.5 -10.5v-39h450v39 q-31 2 -60 9.5t-38 17.5q-21 21 -35.5 36t-27 30t-27 34.5t-35.5 50.5l-237 340l129 176q37 51 65 84.5t54 54.5t52 30t58 11v39h-322v-39q31 0 48 -9t23 -21.5t3 -27t-10 -26.5l-141 -204l-136 213q-5 9 -6 22.5t6.5 26t25 20.5t48.5 6v39h-448v-39z" />
<glyph unicode="y" d="M12 913q39 -3 67 -21t48 -42t33 -50l22 -44l342 -717l-67 -166q-18 -45 -37 -75.5t-37.5 -49t-36 -26t-33.5 -7.5q-6 0 -23 6t-38.5 12.5t-44 12.5t-39.5 6q-53 0 -80 -26t-27 -68q0 -25 10.5 -46.5t29.5 -37.5t45 -25.5t57 -9.5q45 0 90.5 18.5t87.5 54.5t79 88t64 120 l387 950q19 47 35 74.5t32 42.5t34 19.5t41 6.5v39h-310v-39q26 0 42 -2t25 -5t13.5 -7t7.5 -8q6 -9 8 -22t0 -28.5t-7 -31.5t-13 -31l-213 -526l-231 479q-17 37 -26 64t-9 49q0 34 28 51.5t66 17.5h23v39h-445v-39z" />
<glyph unicode="z" horiz-adv-x="946" d="M43 0h840l12 291h-37q-8 -66 -16.5 -102.5t-20 -56t-25 -27.5t-30.5 -17q-38 -18 -145 -18h-349l639 843v39h-798l-7 -264h41q4 42 11.5 73t18 52t24 33.5t28.5 19.5q19 6 51.5 10.5t81.5 4.5h314l-633 -842v-39z" />
<glyph unicode="{" horiz-adv-x="983" d="M139 475q55 -8 107 -26t92 -48t64 -71.5t24 -96.5v-303q0 -68 21 -116t56 -81t80.5 -52.5t94.5 -30.5t98.5 -14t91.5 -3v43q-58 7 -110 26.5t-91 50.5t-62 74.5t-23 98.5v275q0 63 -15.5 107.5t-43 75t-64.5 50t-79.5 33t-88 23t-90.5 20.5q45 10 90.5 19t88 22 t79.5 32.5t64.5 50t43 74.5t15.5 107v275q0 55 23 98.5t62 74.5t91 50t110 26v43q-43 0 -92 -3t-98 -13t-94.5 -29.5t-80.5 -52.5t-56 -81t-21 -116v-305q0 -54 -24 -96t-64 -71.5t-92 -48t-107 -25.5v-66z" />
<glyph unicode="|" horiz-adv-x="426" d="M168 -461h88v1940h-88v-1940z" />
<glyph unicode="}" horiz-adv-x="983" d="M139 -324v-43q42 0 92 3t99.5 13.5t95.5 30.5t81.5 53t57 81.5t21.5 115.5v303q0 55 23.5 96.5t62.5 71.5t90 48t106 26v66q-55 7 -106 25.5t-90 48t-62.5 71.5t-23.5 96v305q0 68 -21.5 116t-57 81t-81.5 52.5t-95.5 29.5t-99.5 13t-92 3v-43q59 -7 111.5 -26t92 -50 t62.5 -74.5t23 -98.5v-275q0 -63 16 -107t43.5 -74.5t64.5 -50t79 -32.5t88 -22t90 -19q-45 -11 -90.5 -20.5t-87.5 -23t-79 -33t-64.5 -50t-43.5 -75t-16 -107.5v-275q0 -55 -23 -98.5t-62.5 -74.5t-92 -50.5t-111.5 -26.5z" />
<glyph unicode="~" horiz-adv-x="1159" d="M41 461l57 -76q19 32 41 67t49 64t61 47.5t77 18.5q56 0 118 -24t126.5 -53t129 -53t125.5 -24q52 0 96 19.5t80.5 52t65.5 73t51 82.5l-59 78q-15 -31 -38 -63.5t-52 -59.5t-62.5 -44t-70.5 -17q-29 0 -67 11.5t-81 29.5t-90 38t-93 38t-89 29.5t-80 11.5 q-57 0 -101 -21.5t-79 -56.5t-63 -79t-52 -89z" />
<glyph unicode="&#xa1;" horiz-adv-x="709" d="M236 -303q0 -43 11 -73t28 -48.5t37.5 -26.5t39.5 -8q51 0 86 38t35 108q0 6 -0.5 12t-1.5 15t-2.5 21.5t-3.5 31.5l-90 843h-41l-94 -843q-3 -22 -3.5 -40t-0.5 -30zM240 895q0 -26 10.5 -47t27 -35.5t36.5 -22.5t40 -8t41 7t38 21.5t27.5 35.5t10.5 49q0 31 -11.5 54 t-29 37t-38 21t-38.5 7q-23 0 -43.5 -9.5t-36.5 -25.5t-25 -37.5t-9 -46.5z" />
<glyph unicode="&#xa2;" d="M131 475q0 -77 14.5 -144t41 -123t63.5 -100t82 -75l-156 -426h74l10.5 29t26 72.5t34 94.5t34 94.5t26 73l10.5 29.5q70 -31 146 -31q70 0 135.5 29t119 81t91 124t51.5 159l-29 15q-31 -74 -64.5 -121t-70.5 -74t-77 -37t-83 -10t-81 13t-70 34l231 637q6 -15 6 -33 q3 -43 16 -67.5t29.5 -36.5t35.5 -15t34 -3q50 0 74 26.5t24 61.5q0 81 -92 153q-18 16 -37 27t-41 20l154 426h-74l-147 -407q-20 5 -41.5 6.5t-44.5 1.5q-93 0 -175.5 -36.5t-145 -102.5t-98.5 -159t-36 -206zM301 565q0 74 17 137t49 109.5t78.5 73t105.5 26.5 q29 0 51 -5.5t39 -16.5l-9.5 -28t-26 -74t-38 -104.5t-43.5 -120t-43.5 -120t-38.5 -104.5t-27.5 -74t-11.5 -28q-51 60 -76.5 146.5t-25.5 182.5z" />
<glyph unicode="&#xa3;" d="M63 109q0 -24 6.5 -48t21 -43t37.5 -31t56 -12q39 0 71 18.5t56 45t41 55t27 49.5q55 -41 96.5 -72t78.5 -52.5t75.5 -32.5t87.5 -11q69 0 121.5 31t89.5 79.5t59 109t29 120.5l-39 11q-6 -23 -17.5 -52t-35.5 -54.5t-64 -43.5t-102 -18q-74 0 -155.5 26t-182.5 60 q30 78 43.5 150t18 131t3 101t-1.5 60h269v98h-269q-1 9 -4.5 44.5t-7.5 82t-7 95.5t-3 84q0 83 14 139t39.5 90t59.5 48.5t75 14.5q34 0 58 -10t39.5 -26.5t22.5 -38t7 -45.5q0 -65 25 -93t57 -28q15 0 29.5 7.5t26 20t18 28t6.5 30.5q0 40 -18.5 78t-52.5 68t-82.5 48.5 t-108.5 18.5q-66 0 -134.5 -26.5t-125 -82t-92 -140t-35.5 -200.5q0 -26 4.5 -77t9.5 -130h-201v-98h201q11 -127 19 -235t0 -189q-14 3 -35.5 5.5t-53.5 2.5q-21 0 -50.5 -6.5t-56 -24t-45 -49t-18.5 -81.5zM123 117q0 38 24.5 64t73.5 26q34 0 56.5 -10.5t33.5 -18.5 q-17 -65 -46.5 -103t-71.5 -38q-28 0 -49 18t-21 62z" />
<glyph unicode="&#xa4;" horiz-adv-x="1276" d="M94 401l74 -73l211 211q57 -50 126 -73.5t146 -23.5q71 0 140 24.5t124 72.5l211 -211l74 73l-211 211q47 56 68.5 124t21.5 141q0 72 -24.5 144t-67.5 126l213 213l-74 74l-217 -217q-52 45 -119.5 68.5t-138.5 23.5q-72 0 -142 -22.5t-126 -67.5l-215 215l-74 -74 l215 -215q-24 -27 -42 -59.5t-29.5 -67.5t-17 -71.5t-5.5 -72.5q0 -72 22.5 -139t67.5 -123zM332 874q0 67 25 125t68 101t101 67.5t125 24.5q64 0 121 -25.5t99.5 -68.5t67 -100t24.5 -121q0 -65 -24.5 -122.5t-66.5 -101t-99 -69t-122 -25.5q-66 0 -124 24.5t-101.5 67 t-68.5 100t-25 123.5z" />
<glyph unicode="&#xa5;" d="M2 1372q29 -3 52.5 -10t41.5 -23q20 -14 38.5 -43.5t37.5 -74.5l221 -516h-373v-76h408l14 -37v-150h-422v-75h422v-113v-53t-1.5 -48.5t-6 -40t-12.5 -26.5q-23 -26 -56.5 -34.5t-68.5 -8.5h-35v-43h537v43h-43q-25 0 -57.5 9.5t-51.5 31.5q-20 23 -23 67t-3 103v113 h423v75h-423v168l8 19h415v76h-385l226 505q23 51 45.5 85t42.5 51q29 26 92 26v37h-360v-37q30 -2 52.5 -6t41.5 -16q15 -10 18.5 -25.5t1.5 -32t-8.5 -33.5t-11.5 -30l-221 -524l-222 540q-5 12 -11.5 25t-9 26t2 25.5t22.5 24.5q22 14 44 18.5t59 7.5v37h-461v-37z" />
<glyph unicode="&#xa6;" horiz-adv-x="645" d="M270 -406h105v820h-105v-820zM270 688h105v819h-105v-819z" />
<glyph unicode="&#xa7;" d="M162 524q0 -62 22.5 -117t63.5 -108t100 -105t133 -106q34 -24 71.5 -54.5t69 -66.5t52 -79t20.5 -93q0 -30 -15 -60.5t-40 -54.5t-58 -39.5t-69 -15.5q-21 0 -43.5 5t-40.5 15t-29.5 25t-11.5 35q0 11 3 26t6.5 31.5t6.5 31.5t3 26q0 10 -3.5 25t-12.5 29.5t-24.5 25 t-39.5 10.5q-14 0 -28 -6t-25.5 -17.5t-19 -28.5t-7.5 -40q0 -58 24 -101.5t61.5 -73t83 -44.5t89.5 -15q60 0 114 21.5t94.5 60.5t64.5 93.5t24 121.5q0 49 -13 89.5t-32.5 72.5t-41.5 57.5t-40 44.5q30 19 69.5 50t75 75t60 101t24.5 129q0 51 -15.5 97t-42 87.5t-61 78.5 t-72.5 70t-76.5 62t-72.5 55q-38 28 -71.5 56t-59 59.5t-40.5 67.5t-15 81q0 35 12 67.5t35.5 58t57 40.5t75.5 15q56 0 85.5 -28.5t29.5 -70.5q0 -12 -2.5 -26l-5 -28t-5 -26t-2.5 -20q0 -14 6 -28t16.5 -25.5t26 -19t33.5 -7.5q34 0 58 25.5t24 68.5q0 54 -22.5 96.5 t-59 72.5t-84 45.5t-98.5 15.5q-42 0 -93 -17t-96 -53t-75.5 -91.5t-30.5 -131.5q0 -48 14 -89.5t34.5 -75t42.5 -60t38 -45.5q-29 -18 -68.5 -49t-75 -75t-60.5 -101t-25 -128zM267 600.5q-1 56.5 21.5 103t60.5 82t77 58.5q9 -10 31.5 -28t53 -41.5t65 -51.5t67.5 -57.5 t61.5 -60.5t47.5 -60q42 -67 44.5 -123.5t-19.5 -103t-60 -83t-78 -61.5q-28 31 -71.5 63.5t-91.5 69t-93 79t-76 93.5q-39 65 -40 121.5z" />
<glyph unicode="&#xa8;" horiz-adv-x="637" d="M0 1276q0 -21 8.5 -40t23 -34t33 -24t39.5 -9q22 0 41.5 8.5t34 23.5t23 34.5t8.5 40.5t-8.5 40.5t-23 34t-34 23t-41.5 8.5q-20 0 -38.5 -9t-33 -24t-23.5 -34t-9 -39zM424 1276q0 -21 8.5 -40t23 -34t34 -24t40.5 -9q22 0 41.5 8.5t34 23.5t23 34.5t8.5 40.5t-8.5 40.5 t-23 34t-34 23t-41.5 8.5q-20 0 -39 -9t-34 -24t-24 -34t-9 -39z" />
<glyph unicode="&#xa9;" horiz-adv-x="1618" d="M72 705q0 -106 26.5 -201.5t74.5 -177.5t115.5 -148.5t149 -113t176 -72t195.5 -25.5q102 0 196.5 26t176.5 73t149.5 114t115.5 149t74.5 177t26.5 199q0 155 -57 289.5t-156.5 234t-234.5 156.5t-291 57q-91 0 -181 -22.5t-172 -66t-152.5 -107.5t-122 -145.5 t-80.5 -181t-29 -214.5zM137 705q0 104 27 194t74 165t111 133.5t139 98.5t157 61t164 21q93 0 179 -23.5t161 -67t136.5 -104.5t105.5 -135.5t68 -161.5t24 -181q0 -98 -25 -186t-70 -162.5t-107.5 -134.5t-137.5 -102t-160 -64.5t-174 -22.5q-136 0 -258 50.5t-214 140 t-146 212.5t-54 269zM332 698q0 -103 38.5 -188t104.5 -146t153 -94.5t185 -33.5q131 0 229 53.5t170 156.5l-38 23q-119 -168 -324 -168q-78 0 -141.5 26t-109 79.5t-70.5 134t-25 188.5q0 91 23 166t66 127.5t105.5 81.5t141.5 29q55 0 97.5 -12.5t75.5 -33t56.5 -46.5 t40.5 -53t27.5 -53t17.5 -46h39l-20 291h-41q-3 -7 -6.5 -15.5t-8.5 -15.5t-13.5 -11.5t-23.5 -4.5t-34.5 7.5t-46.5 16t-63.5 16t-86.5 7.5q-67 0 -131.5 -14.5t-122 -42t-106 -69t-83.5 -95t-55 -119t-20 -142.5z" />
<glyph unicode="&#xaa;" horiz-adv-x="678" d="M53 973q0 -33 12 -60t33.5 -46t51.5 -29.5t67 -10.5q27 0 47.5 3.5t43 13.5t52 28.5t74.5 47.5q0 -27 6.5 -45t17.5 -28.5t25.5 -15t30.5 -4.5q79 0 162 93v36q-20 -18 -32.5 -28t-21 -15t-14.5 -6.5t-12 -1.5q-16 0 -23.5 7t-9.5 24q-3 9 -3.5 34.5t-0.5 65.5v195 q0 45 -8 80.5t-32.5 61t-69.5 39t-119 13.5q-49 0 -94.5 -9.5t-80 -28t-55 -45t-20.5 -60.5q0 -28 16 -43.5t47 -15.5q28 0 46 15.5t16 43.5l-2 37q3 29 29.5 49.5t72.5 20.5q66 0 97.5 -33.5t31.5 -116.5v-22q-122 -36 -196.5 -66.5t-115.5 -59.5t-55 -58t-14 -60zM61 680 h603v45h-603v-45zM180 1001q0 21 7 41t33 41t76.5 44.5t137.5 52.5v-219q-46 -31 -83.5 -48.5t-65.5 -15.5q-22 1 -41 9t-33.5 22t-22.5 33t-8 40z" />
<glyph unicode="&#xab;" horiz-adv-x="709" d="M113 500q0 -65 20.5 -119t55 -98t79.5 -79.5t95 -62.5l10 15q-59 37 -93 78t-51.5 85t-22.5 91.5t-5 97.5q0 48 7.5 93.5t27 86.5t53 76.5t84.5 62.5l-8 15q-121 -60 -186.5 -147t-65.5 -195zM358 500q0 -65 20.5 -119t55 -98t79.5 -79.5t95 -62.5l12 15q-59 37 -93.5 78 t-52.5 85t-23 91.5t-5 97.5q0 48 8 93.5t27.5 86.5t53.5 76.5t85 62.5l-10 15q-121 -60 -186.5 -147t-65.5 -195z" />
<glyph unicode="&#xac;" horiz-adv-x="1296" d="M94 737h983v-350h123v473h-1106v-123z" />
<glyph unicode="&#xad;" horiz-adv-x="709" d="M86 397h537v158h-537v-158z" />
<glyph unicode="&#xae;" horiz-adv-x="1618" d="M72 705q0 -106 26.5 -201.5t74.5 -177.5t115.5 -148.5t149 -113t176 -72t195.5 -25.5q102 0 196.5 26t176.5 73t149.5 114t115.5 149t74.5 177t26.5 199q0 155 -57 289.5t-156.5 234t-234.5 156.5t-291 57q-91 0 -181 -22.5t-172 -66t-152.5 -107.5t-122 -145.5 t-80.5 -181t-29 -214.5zM137 705q0 104 27 194t74 165t111 133.5t139 98.5t157 61t164 21q93 0 179 -23.5t161 -67t136.5 -104.5t105.5 -135.5t68 -161.5t24 -181q0 -98 -25 -186t-70 -162.5t-107.5 -134.5t-137.5 -102t-160 -64.5t-174 -22.5q-136 0 -258 50.5t-214 140 t-146 212.5t-54 269zM389 260h381v35q-34 0 -57.5 3t-34.5 11t-21 20t-10 29v322h80l305 -420h193v35q-38 3 -56 14q-17 11 -33.5 28t-37.5 48l-215 309q31 8 70.5 23t74.5 42t59.5 67.5t24.5 99.5q0 48 -20.5 90t-60 74t-97 50.5t-131.5 18.5h-402v-39q48 0 66 -12 q11 -8 17 -17t10 -20q2 -6 2 -29v-63v-543q0 -40 -2 -69.5t-15 -44.5q-15 -20 -40 -23.5t-50 -3.5v-35zM647 725v373q25 8 46.5 11t41.5 3q49 0 88 -16.5t66.5 -44t42 -63.5t14.5 -75q0 -46 -16 -78t-41.5 -52.5t-58 -32.5t-66 -17.5t-64.5 -6.5t-53 -1z" />
<glyph unicode="&#xaf;" horiz-adv-x="668" d="M0 1169h668v115h-668v-115z" />
<glyph unicode="&#xb0;" horiz-adv-x="655" d="M102 1249q0 -47 17.5 -88t48.5 -71.5t72 -48t88 -17.5t88 17.5t71.5 48t48 71.5t17.5 88t-17.5 88t-48 72t-71.5 48.5t-88 17.5t-88 -17.5t-72 -48.5t-48.5 -72t-17.5 -88zM184 1249q0 30 11 56t30.5 45.5t46 31t56.5 11.5t56 -11.5t45.5 -31t30.5 -45.5t11 -56t-11 -56 t-30.5 -45.5t-45.5 -30.5t-56 -11t-56.5 11t-46 30.5t-30.5 45.5t-11 56z" />
<glyph unicode="&#xb1;" horiz-adv-x="2048" d="M410 0h1228v127h-1228v-127zM410 733h551v-368h126v368h551v127h-551v369h-126v-369h-551v-127z" />
<glyph unicode="&#xb2;" horiz-adv-x="750" d="M25 535h598l71 161h-26q-18 -21 -32.5 -34t-36.5 -20.5t-56.5 -10t-91.5 -2.5h-267q23 18 81 69t151 136q31 28 69 66t71 82.5t55 94t22 99.5q0 52 -25 93.5t-66 70t-93.5 44t-106.5 15.5q-84 0 -137.5 -26.5t-85 -64t-45.5 -79t-19 -70.5h27q7 18 22.5 42.5t42 47 t65 38.5t91.5 16q24 0 58.5 -8.5t66 -29.5t54 -56.5t22.5 -90.5q0 -103 -107 -231q-54 -65 -147.5 -146.5t-224.5 -183.5v-22z" />
<glyph unicode="&#xb3;" horiz-adv-x="750" d="M55 594q0 -7 3.5 -18.5t20.5 -22.5t52 -19t98 -8q93 0 167.5 21.5t126.5 60.5t80 93.5t28 119.5q0 53 -20.5 91.5t-49.5 64.5t-61.5 41.5t-57.5 23.5q138 98 138 191q0 16 -9 45t-35 57t-72 49t-120 21q-69 0 -116.5 -20.5t-79 -49.5t-50 -59.5t-28.5 -50.5l24 -11 q76 105 195 105q25 0 54.5 -7t54.5 -23.5t42 -44t17 -68.5q0 -39 -14.5 -68.5t-37.5 -51t-50.5 -36t-53 -23.5t-46.5 -13t-30 -5v-18l22 -0.5t54.5 -6t71 -17.5t71 -36t54.5 -62t22 -94q0 -38 -17 -68t-44 -52t-61 -33.5t-68 -11.5q-39 0 -67 9t-52 19.5t-46.5 19.5t-49.5 9 q-25 0 -42.5 -12.5t-17.5 -30.5z" />
<glyph unicode="&#xb4;" horiz-adv-x="729" d="M121 1083h86l307 195q34 22 60 47.5t26 56.5q0 11 -5.5 23t-14 22t-18 16.5t-17.5 6.5q-34 0 -67.5 -21t-61.5 -49z" />
<glyph unicode="&#xb5;" horiz-adv-x="1206" d="M129 -348q0 -25 7.5 -45.5t20 -35.5t28.5 -23.5t34 -8.5q19 0 37 8.5t31.5 24.5t21.5 37t8 47q0 31 -7.5 72t-17 87.5t-17 96t-7.5 98.5v49q19 -32 42.5 -50t46 -27t42 -11t31.5 -2q82 0 160 48.5t166 150.5q7 -58 22.5 -96t36.5 -61t47.5 -32.5t57.5 -9.5 q40 0 75.5 13.5t63 43.5t45 76.5t22.5 112.5h-41q-8 -38 -16 -62.5t-18.5 -39.5t-23 -21t-28.5 -6q-14 0 -26.5 3.5t-22 21.5t-15 56t-5.5 107v676h-174v-712q-123 -140 -244 -140q-50 0 -83.5 28t-45.5 67q-9 27 -13.5 77t-4.5 127v553h-170v-751q0 -99 -5 -168.5 t-12 -119.5t-16 -84.5t-16 -62.5t-12 -54t-5 -58z" />
<glyph unicode="&#xb6;" horiz-adv-x="1198" d="M29 1020q0 -82 20.5 -142t56 -103.5t83.5 -71t103.5 -44t115.5 -23.5t120 -9v-1088h76v1813h193v-1813h77v1813h138v57h-514q-56 0 -112.5 -8t-108.5 -26t-97.5 -47.5t-79 -73t-52.5 -101.5t-19 -133z" />
<glyph unicode="&#xb7;" horiz-adv-x="641" d="M84 696q0 -49 18.5 -92t50 -74.5t74.5 -50t92 -18.5t92.5 18.5t75 50t50 74.5t18.5 92t-18.5 92t-50 75t-75 50.5t-92.5 18.5t-92 -18.5t-74.5 -50.5t-50 -75t-18.5 -92z" />
<glyph unicode="&#xb8;" horiz-adv-x="500" d="M27 -426q40 -14 84 -23.5t88 -9.5q51 0 100 12t87.5 34.5t62.5 55.5t24 76q0 39 -15 67t-39.5 46t-57 26.5t-66.5 8.5t-62 -6l56 139h-76l-90 -211l16 -12q22 6 47 9t50 1q35 -3 56 -24t21 -58q0 -45 -33 -67.5t-92 -22.5q-13 0 -29.5 2t-34.5 6t-35.5 8.5t-31.5 10.5z " />
<glyph unicode="&#xb9;" horiz-adv-x="750" d="M172 1298l10 -20q56 21 84.5 18t40 -24t12 -55.5t0.5 -75.5v-457q0 -40 -2.5 -64.5t-15.5 -38.5t-39 -19t-74 -5v-22h383v22q-48 0 -73.5 4.5t-37.5 18t-14 38.5t-2 66v715h-26z" />
<glyph unicode="&#xba;" horiz-adv-x="780" d="M59 1118q0 -60 24 -114t67 -95.5t103 -65.5t132 -24q84 0 147 28.5t105 74t63 101.5t21 112q0 60 -24 113t-67.5 92.5t-104 62t-134.5 22.5q-78 0 -139.5 -26.5t-104 -69.5t-65.5 -98t-23 -113zM72 680h639v45h-639v-45zM199 1169q0 62 15.5 104t40 67t55 35.5t59.5 10.5 q49 0 88.5 -23t67 -63.5t42.5 -95.5t15 -119q0 -61 -12 -103t-34 -68.5t-52.5 -38t-67.5 -11.5q-49 0 -89 24.5t-68.5 66.5t-44 97.5t-15.5 116.5z" />
<glyph unicode="&#xbb;" horiz-adv-x="709" d="M84 156l13 -15q50 27 95 62.5t79.5 79.5t55 98t20.5 119q0 108 -66 195t-186 147l-11 -15q52 -27 85.5 -62.5t53.5 -76.5t28 -86.5t8 -93.5q0 -50 -5.5 -97.5t-23.5 -91.5t-53 -85t-93 -78zM329 156l13 -15q50 27 95 62.5t79.5 79.5t55 98t20.5 119q0 108 -66 195 t-186 147l-11 -15q52 -27 85.5 -62.5t53.5 -76.5t28 -86.5t8 -93.5q0 -50 -5.5 -97.5t-23.5 -91.5t-53 -85t-93 -78z" />
<glyph unicode="&#xbc;" horiz-adv-x="1638" d="M203 1317l8 -23q48 22 72.5 19.5t34.5 -23.5t10 -57v-78v-459q0 -41 -2.5 -66t-13 -38.5t-33 -18t-62.5 -4.5v-24h324v24q-41 0 -63 4.5t-32.5 18t-12 38.5t-1.5 66v721h-22zM293 -16h102l963 1452h-96zM856 219h363v-227h104v227h113v88h-113v557h-70l-397 -567v-78z M918 307l301 424v-424h-301z" />
<glyph unicode="&#xbd;" horiz-adv-x="1638" d="M172 1317l8 -23q48 22 72.5 19.5t34.5 -23.5t10 -57v-78v-459q0 -41 -2.5 -66t-13 -38.5t-33 -18t-62.5 -4.5v-24h324v24q-41 0 -63 4.5t-32.5 18t-12 38.5t-1.5 66v721h-22zM274 -16h103l895 1452h-101zM901 -8h504l61 164h-24q-15 -21 -27 -34.5t-30.5 -21t-47.5 -10 t-77 -2.5h-224q20 17 68 68.5t127 136.5q27 29 59 68t59 84t45.5 94.5t18.5 99.5q0 53 -21 94.5t-55.5 70.5t-78.5 44.5t-89 15.5q-71 0 -116 -27t-72 -64.5t-38.5 -78.5t-14.5 -69h20q6 18 19.5 42.5t36 47t55.5 38t78 15.5q20 0 48.5 -8.5t55 -30t45.5 -57.5t19 -90 q0 -106 -91 -236q-46 -65 -123.5 -146t-189.5 -184v-24z" />
<glyph unicode="&#xbe;" horiz-adv-x="1638" d="M176 598q0 -7 3 -18.5t17.5 -23t44.5 -20t83 -8.5q78 0 140.5 22t106.5 61.5t67.5 94.5t23.5 121q0 54 -17 93t-42 65.5t-52 42t-47 23.5q114 100 114 192q0 17 -7.5 46t-29 57.5t-60.5 49.5t-101 21q-59 0 -98.5 -21t-66 -50t-42 -60l-25.5 -51l23 -10q65 104 164 104 q21 0 45 -7t45 -23.5t35 -44t14 -68.5q0 -40 -12 -69.5t-31 -51.5t-42 -36.5t-44.5 -23.5t-39.5 -13t-26 -5v-20q2 0 26 -1t62 -10t74 -31.5t62 -65t26 -109.5q0 -38 -14.5 -68.5t-37.5 -52.5t-51.5 -33.5t-55.5 -11.5q-33 0 -57 9t-44.5 19.5t-39.5 19.5t-42 9 q-20 0 -35.5 -12t-15.5 -31zM340 -16h102l963 1452h-96zM883 219h362v-227h105v227h112v88h-112v557h-70l-397 -567v-78zM944 307l301 424v-424h-301z" />
<glyph unicode="&#xbf;" horiz-adv-x="946" d="M80 -131q0 -77 29 -138t81 -103t123.5 -64.5t155.5 -22.5q91 0 161 25t117.5 66.5t72 95.5t24.5 112q0 51 -14 83t-32.5 50t-38 24.5t-30.5 6.5q-14 0 -29 -6t-27 -17t-20 -28t-8 -39q0 -18 10.5 -40t22.5 -45.5t22.5 -47.5t10.5 -45q0 -23 -12 -47.5t-36.5 -44.5 t-61.5 -32.5t-87 -12.5q-41 0 -83.5 15.5t-78 49.5t-58 88.5t-22.5 132.5q0 41 9.5 84.5t24 84.5t32 77.5t33.5 63.5q34 57 59.5 112.5t42.5 111t26.5 113t12.5 119.5h-45q-3 -73 -18 -127t-42.5 -102.5t-68.5 -97.5t-96 -111q-24 -27 -52.5 -62t-52.5 -78t-40.5 -94 t-16.5 -110zM367 895q0 -26 10 -47.5t26 -37t36.5 -24t41.5 -8.5q23 0 44.5 8.5t38 24.5t26.5 37t10 47q0 28 -10 49.5t-27 36.5t-38.5 23t-43.5 8q-20 0 -40 -7.5t-36.5 -22.5t-27 -37t-10.5 -50z" />
<glyph unicode="&#xc0;" horiz-adv-x="1530" d="M16 0h445v39q-74 6 -111 21.5t-47.5 41.5t-0.5 62t30 84l96 225h547l84 -203q18 -43 31.5 -84t8.5 -73t-36.5 -52.5t-104.5 -21.5v-39h555v39q-44 3 -75.5 12t-58 33t-51.5 68t-56 118l-490 1172h-37l-495 -1161q-25 -58 -48 -102t-49.5 -74t-59 -46.5t-77.5 -19.5v-39z M420 1821q0 -14 9.5 -27t23.5 -24.5t30 -22t29 -18.5l307 -195h86l-295 297q-29 29 -63 49.5t-62 20.5q-31 0 -48 -21.5t-17 -58.5zM461 549l246 571l239 -571h-485z" />
<glyph unicode="&#xc1;" horiz-adv-x="1530" d="M16 0h445v39q-74 6 -111 21.5t-47.5 41.5t-0.5 62t30 84l96 225h547l84 -203q18 -43 31.5 -84t8.5 -73t-36.5 -52.5t-104.5 -21.5v-39h555v39q-44 3 -75.5 12t-58 33t-51.5 68t-56 118l-490 1172h-37l-495 -1161q-25 -58 -48 -102t-49.5 -74t-59 -46.5t-77.5 -19.5v-39z M461 549l246 571l239 -571h-485zM602 1534h86l307 195q34 21 60 47t26 57q0 11 -5.5 23t-13.5 22t-17.5 16.5t-18.5 6.5q-34 0 -67.5 -21t-61.5 -49z" />
<glyph unicode="&#xc2;" horiz-adv-x="1530" d="M16 0h445v39q-74 6 -111 21.5t-47.5 41.5t-0.5 62t30 84l96 225h547l84 -203q18 -43 31.5 -84t8.5 -73t-36.5 -52.5t-104.5 -21.5v-39h555v39q-44 3 -75.5 12t-58 33t-51.5 68t-56 118l-490 1172h-37l-495 -1161q-25 -58 -48 -102t-49.5 -74t-59 -46.5t-77.5 -19.5v-39z M426 1534h74l260 221l260 -221h74l-267 356h-133zM461 549l246 571l239 -571h-485z" />
<glyph unicode="&#xc3;" horiz-adv-x="1530" d="M16 0h445v39q-74 6 -111 21.5t-47.5 41.5t-0.5 62t30 84l96 225h547l84 -203q18 -43 31.5 -84t8.5 -73t-36.5 -52.5t-104.5 -21.5v-39h555v39q-44 3 -75.5 12t-58 33t-51.5 68t-56 118l-490 1172h-37l-495 -1161q-25 -58 -48 -102t-49.5 -74t-59 -46.5t-77.5 -19.5v-39z M393 1587h56q2 18 13 35.5t27.5 31.5t37.5 23t42 9q34 0 59.5 -7.5t47 -18.5t41 -23.5t42 -23.5t51 -18.5t67.5 -7.5q44 0 83 19.5t69 51.5t49 73t24 84h-55q-13 -51 -55 -78t-93 -27q-41 0 -73 14.5t-62 32.5t-62.5 32.5t-72.5 14.5q-50 0 -89 -16.5t-68 -46t-48.5 -69 t-30.5 -85.5zM461 549l246 571l239 -571h-485z" />
<glyph unicode="&#xc4;" horiz-adv-x="1530" d="M16 0h445v39q-74 6 -111 21.5t-47.5 41.5t-0.5 62t30 84l96 225h547l84 -203q18 -43 31.5 -84t8.5 -73t-36.5 -52.5t-104.5 -21.5v-39h555v39q-44 3 -75.5 12t-58 33t-51.5 68t-56 118l-490 1172h-37l-495 -1161q-25 -58 -48 -102t-49.5 -74t-59 -46.5t-77.5 -19.5v-39z M440 1665q0 -21 8.5 -40t23 -33.5t33.5 -23.5t40 -9t40.5 8.5t34 23t23 34t8.5 40.5t-8.5 40.5t-23 34.5t-34 23.5t-40.5 8.5q-20 0 -39 -9.5t-33.5 -24.5t-23.5 -34t-9 -39zM461 549l246 571l239 -571h-485zM864 1665q0 -21 8.5 -40t23 -33.5t34 -23.5t41.5 -9 q21 0 40.5 8.5t34 23t23 34t8.5 40.5t-8.5 40.5t-23 34.5t-34 23.5t-40.5 8.5q-20 0 -39 -9.5t-34 -24.5t-24.5 -34t-9.5 -39z" />
<glyph unicode="&#xc5;" horiz-adv-x="1530" d="M16 0h445v39q-74 6 -111 21.5t-47.5 41.5t-0.5 62t30 84l96 225h547l84 -203q18 -43 31.5 -84t8.5 -73t-36.5 -52.5t-104.5 -21.5v-39h555v39q-44 3 -75.5 12t-58 33t-51.5 68t-56 118l-490 1172h-37l-495 -1161q-25 -58 -48 -102t-49.5 -74t-59 -46.5t-77.5 -19.5v-39z M461 549l246 571l239 -571h-485zM563 1733q0 -45 17.5 -81.5t46 -62.5t64.5 -40.5t73 -14.5t72 14.5t63 40.5t45 62.5t17 81.5q0 46 -17 82.5t-45 62t-63 39.5t-72 14q-40 0 -76.5 -14.5t-64 -40.5t-44 -62.5t-16.5 -80.5zM635 1733q0 28 10.5 51.5t28 40t41 26t49.5 9.5 q24 0 46.5 -9.5t40 -26t28 -40t10.5 -51.5q0 -26 -9.5 -49t-26.5 -40t-40 -27.5t-49 -10.5q-25 0 -48 8.5t-41 25t-29 40t-11 53.5z" />
<glyph unicode="&#xc6;" horiz-adv-x="1894" d="M-25 0h443v39q-101 9 -133 31q-21 13 -28 31t-1 45t24.5 65t47.5 92l129 242h411v-295q0 -129 -24 -160q-42 -51 -129 -51h-51v-39h1058l111 356h-37q-36 -74 -73 -127t-84.5 -87t-111 -50t-151.5 -16h-188q-31 0 -50.5 4t-32 10.5t-19.5 14t-11 14.5q-8 11 -8 40v72v467 h268q67 0 107.5 -9t64.5 -32t35 -63t19 -102h36v487h-36q-5 -56 -18 -95t-39 -63t-67 -34.5t-102 -10.5h-268v557h346q79 0 126 -9t75 -34.5t43.5 -70.5t30.5 -117h34l-16 307h-1155v-37q55 -3 90 -10t55 -18t27.5 -25.5t7.5 -32.5q0 -25 -19.5 -75.5t-60.5 -125.5 l-430 -800q-30 -56 -54 -95t-44.5 -65.5t-37.5 -42.5t-32 -25q-30 -18 -78 -18v-39zM496 623l372 710v-710h-372z" />
<glyph unicode="&#xc7;" horiz-adv-x="1421" d="M76 684q0 -127 35.5 -243t103.5 -209.5t167 -159t226 -90.5l-82 -193l17 -12q21 6 46 9t50 1q35 -3 56.5 -24t21.5 -58q0 -45 -33 -67.5t-92 -22.5q-13 0 -30 2t-35 6t-35 8.5t-31 10.5l-31 -68q40 -14 84.5 -23.5t87.5 -9.5q51 0 100 12t88 34.5t63 55.5t24 76 q0 39 -15 67t-39.5 46t-57 26.5t-67.5 8.5q-34 0 -61 -6l43 110q20 -2 40 -3t42 -1q100 0 184 22t155.5 67t131.5 113.5t113 160.5l-31 22q-62 -88 -117.5 -145t-111.5 -90t-115 -45.5t-129 -12.5q-119 0 -216.5 40.5t-167 119.5t-107.5 195.5t-38 267.5q0 176 37 305 t103.5 214t158 126t199.5 41q82 0 154 -23t131.5 -71.5t106.5 -125.5t79 -185h33l-33 479h-37q-12 -50 -35 -74.5t-51 -24.5q-16 0 -45 15.5t-73.5 34t-105 34t-140.5 15.5q-108 0 -203.5 -27.5t-175.5 -77.5t-143 -120t-107 -154t-67 -180.5t-23 -198.5z" />
<glyph unicode="&#xc8;" horiz-adv-x="1300" d="M45 0h1085l123 354h-43q-49 -87 -86.5 -141t-80.5 -84.5t-99 -41.5t-143 -11h-238q-50 0 -75 12t-34.5 33t-9.5 49v63v465h310q71 0 112 -12t63 -37t31 -65t17 -95h39v490h-39q-8 -54 -17 -92t-30.5 -63t-62.5 -36.5t-113 -11.5h-310v557h390q62 0 104.5 -8.5t70 -24.5 t43.5 -37.5t25.5 -47t15 -54.5t13.5 -59h41l-17 307h-1085v-37h49q44 0 75.5 -11.5t49.5 -31.5q27 -29 27 -164v-915q0 -46 -2.5 -76.5t-7.5 -50t-13 -31t-18 -20.5q-11 -9 -26.5 -15.5t-31.5 -10.5t-30 -5.5t-23 -1.5h-49v-39zM338 1821q0 -14 9.5 -27t23.5 -24.5t30 -22 t29 -18.5l307 -195h86l-295 297q-29 29 -63 49.5t-62 20.5q-31 0 -48 -21.5t-17 -58.5z" />
<glyph unicode="&#xc9;" horiz-adv-x="1300" d="M45 0h1085l123 354h-43q-49 -87 -86.5 -141t-80.5 -84.5t-99 -41.5t-143 -11h-238q-50 0 -75 12t-34.5 33t-9.5 49v63v465h310q71 0 112 -12t63 -37t31 -65t17 -95h39v490h-39q-8 -54 -17 -92t-30.5 -63t-62.5 -36.5t-113 -11.5h-310v557h390q62 0 104.5 -8.5t70 -24.5 t43.5 -37.5t25.5 -47t15 -54.5t13.5 -59h41l-17 307h-1085v-37h49q44 0 75.5 -11.5t49.5 -31.5q27 -29 27 -164v-915q0 -46 -2.5 -76.5t-7.5 -50t-13 -31t-18 -20.5q-11 -9 -26.5 -15.5t-31.5 -10.5t-30 -5.5t-23 -1.5h-49v-39zM500 1534h86l307 195q34 21 60 47t26 57 q0 11 -5.5 23t-14 22t-18 16.5t-17.5 6.5q-34 0 -68 -21t-61 -49z" />
<glyph unicode="&#xca;" horiz-adv-x="1300" d="M45 0h1085l123 354h-43q-49 -87 -86.5 -141t-80.5 -84.5t-99 -41.5t-143 -11h-238q-50 0 -75 12t-34.5 33t-9.5 49v63v465h310q71 0 112 -12t63 -37t31 -65t17 -95h39v490h-39q-8 -54 -17 -92t-30.5 -63t-62.5 -36.5t-113 -11.5h-310v557h390q62 0 104.5 -8.5t70 -24.5 t43.5 -37.5t25.5 -47t15 -54.5t13.5 -59h41l-17 307h-1085v-37h49q44 0 75.5 -11.5t49.5 -31.5q27 -29 27 -164v-915q0 -46 -2.5 -76.5t-7.5 -50t-13 -31t-18 -20.5q-11 -9 -26.5 -15.5t-31.5 -10.5t-30 -5.5t-23 -1.5h-49v-39zM270 1534h74l260 221l260 -221h74l-266 356 h-133z" />
<glyph unicode="&#xcb;" horiz-adv-x="1300" d="M45 0h1085l123 354h-43q-49 -87 -86.5 -141t-80.5 -84.5t-99 -41.5t-143 -11h-238q-50 0 -75 12t-34.5 33t-9.5 49v63v465h310q71 0 112 -12t63 -37t31 -65t17 -95h39v490h-39q-8 -54 -17 -92t-30.5 -63t-62.5 -36.5t-113 -11.5h-310v557h390q62 0 104.5 -8.5t70 -24.5 t43.5 -37.5t25.5 -47t15 -54.5t13.5 -59h41l-17 307h-1085v-37h49q44 0 75.5 -11.5t49.5 -31.5q27 -29 27 -164v-915q0 -46 -2.5 -76.5t-7.5 -50t-13 -31t-18 -20.5q-11 -9 -26.5 -15.5t-31.5 -10.5t-30 -5.5t-23 -1.5h-49v-39zM297 1665q0 -21 8.5 -40t23 -33.5t33 -23.5 t39.5 -9q22 0 41.5 8.5t34 23t23 34t8.5 40.5t-8.5 40.5t-23 34.5t-34 23.5t-41.5 8.5q-20 0 -38.5 -9.5t-33 -24.5t-23.5 -34t-9 -39zM721 1665q0 -21 8.5 -40t23 -33.5t34 -23.5t40.5 -9q22 0 41.5 8.5t34 23t23 34t8.5 40.5t-8.5 40.5t-23 34.5t-34 23.5t-41.5 8.5 q-20 0 -39 -9.5t-34 -24.5t-24 -34t-9 -39z" />
<glyph unicode="&#xcc;" horiz-adv-x="709" d="M-31 1821q0 -14 9.5 -27t23.5 -24.5t30 -22t29 -18.5l308 -195h86l-295 297q-29 29 -63 49.5t-62 20.5q-31 0 -48.5 -21.5t-17.5 -58.5zM53 0h604v39h-51q-18 0 -38 4.5t-38 11.5t-31.5 16t-19.5 17q-12 19 -18 56.5t-6 105.5v911q0 63 7 103t19 57q42 51 125 51h51v37 h-604v-37h51q36 0 71.5 -14t55.5 -39q8 -9 12.5 -21.5t7 -31t3 -44t0.5 -61.5v-911q0 -129 -25 -160q-21 -26 -51 -38.5t-74 -12.5h-51v-39z" />
<glyph unicode="&#xcd;" horiz-adv-x="709" d="M53 0h604v39h-51q-18 0 -38 4.5t-38 11.5t-31.5 16t-19.5 17q-12 19 -18 56.5t-6 105.5v911q0 63 7 103t19 57q42 51 125 51h51v37h-604v-37h51q36 0 71.5 -14t55.5 -39q8 -9 12.5 -21.5t7 -31t3 -44t0.5 -61.5v-911q0 -129 -25 -160q-21 -26 -51 -38.5t-74 -12.5h-51 v-39zM254 1534h86l307 195q34 21 60 47t26 57q0 11 -5.5 23t-14 22t-18 16.5t-17.5 6.5q-34 0 -67.5 -21t-61.5 -49z" />
<glyph unicode="&#xce;" horiz-adv-x="709" d="M20 1534h74l260 221l260 -221h74l-266 356h-133zM53 0h604v39h-51q-18 0 -38 4.5t-38 11.5t-31.5 16t-19.5 17q-12 19 -18 56.5t-6 105.5v911q0 63 7 103t19 57q42 51 125 51h51v37h-604v-37h51q36 0 71.5 -14t55.5 -39q8 -9 12.5 -21.5t7 -31t3 -44t0.5 -61.5v-911 q0 -129 -25 -160q-21 -26 -51 -38.5t-74 -12.5h-51v-39z" />
<glyph unicode="&#xcf;" horiz-adv-x="709" d="M37 1665q0 -21 8.5 -40t23 -33.5t33 -23.5t39.5 -9q22 0 41.5 8.5t34 23t23 34t8.5 40.5t-8.5 40.5t-23 34.5t-34 23.5t-41.5 8.5q-20 0 -38.5 -9.5t-33 -24.5t-23.5 -34t-9 -39zM53 0h604v39h-51q-18 0 -38 4.5t-38 11.5t-31.5 16t-19.5 17q-12 19 -18 56.5t-6 105.5 v911q0 63 7 103t19 57q42 51 125 51h51v37h-604v-37h51q36 0 71.5 -14t55.5 -39q8 -9 12.5 -21.5t7 -31t3 -44t0.5 -61.5v-911q0 -129 -25 -160q-21 -26 -51 -38.5t-74 -12.5h-51v-39zM461 1665q0 -21 8.5 -40t23 -33.5t34 -23.5t40.5 -9q22 0 41.5 8.5t34 23t23 34 t8.5 40.5t-8.5 40.5t-23 34.5t-34 23.5t-41.5 8.5q-20 0 -39 -9.5t-34 -24.5t-24 -34t-9 -39z" />
<glyph unicode="&#xd0;" horiz-adv-x="1538" d="M37 0h631q209 0 358 56t244 153t139.5 227t44.5 279q0 111 -26.5 207.5t-74 176t-113.5 139.5t-144 97q-159 74 -486 74h-573v-37h53q40 0 69.5 -11.5t51.5 -33.5q27 -36 27 -166v-338h-201v-118h201v-455q0 -120 -21 -154q-35 -57 -127 -57h-53v-39zM438 104v601h412 v118h-412v480q62 17 114.5 23.5t98.5 6.5q126 0 231 -43.5t180 -124.5t117 -197.5t42 -262.5q0 -147 -42.5 -264.5t-117.5 -199t-178 -125t-224 -42.5q-45 0 -100 8t-121 22z" />
<glyph unicode="&#xd1;" horiz-adv-x="1538" d="M12 1372q62 0 103.5 -19t68 -43.5t41.5 -49t25 -35.5v-979q0 -121 -25 -152q-17 -29 -48.5 -42t-78.5 -13h-49v-39h492v39h-49q-84 0 -123 43q-29 34 -29 164v866l932 -1135h37v1188q0 60 5 97.5t17 56.5q17 26 49.5 39.5t77.5 13.5h49v37h-489v-37h47q84 0 123 -45 q29 -29 29 -162v-813l-861 1057h-344v-37zM434 1559h55q3 18 14 35.5t27.5 31.5t37.5 22.5t42 8.5q34 0 59.5 -7.5t47 -18t41 -23.5t42 -23.5t51 -18t67.5 -7.5q44 0 83 19.5t69 51t49 72.5t24 84h-56q-12 -51 -54 -78t-93 -27q-41 0 -73 15t-62.5 32.5t-62.5 32.5t-72 15 q-50 0 -89 -17t-68 -46t-48.5 -68.5t-30.5 -85.5z" />
<glyph unicode="&#xd2;" horiz-adv-x="1538" d="M74 709q0 -166 53.5 -303t146.5 -234.5t218.5 -151t269.5 -53.5q98 0 187.5 25.5t166.5 73t139.5 114.5t106.5 150t68 180t24 203q0 105 -24.5 200.5t-68.5 176.5t-105.5 146t-136.5 111t-161 70.5t-178 24.5q-100 0 -191.5 -25t-170 -71.5t-142 -112t-108.5 -147 t-69.5 -177t-24.5 -200.5zM313 715q0 151 29.5 272.5t86.5 206t140 130t189 44.5q117 -1 203.5 -47t144 -133.5t86 -214t27.5 -287.5q-1 -167 -35 -288.5t-95 -201t-145 -118t-184 -37.5q-109 1 -192.5 50.5t-140 138t-85.5 212.5t-29 273zM434 1821q0 -14 9.5 -27 t23.5 -24.5t30 -22t29 -18.5l308 -195h86l-295 297q-29 29 -63 49.5t-62 20.5q-31 0 -48.5 -21.5t-17.5 -58.5z" />
<glyph unicode="&#xd3;" horiz-adv-x="1538" d="M74 709q0 -166 53.5 -303t146.5 -234.5t218.5 -151t269.5 -53.5q98 0 187.5 25.5t166.5 73t139.5 114.5t106.5 150t68 180t24 203q0 105 -24.5 200.5t-68.5 176.5t-105.5 146t-136.5 111t-161 70.5t-178 24.5q-100 0 -191.5 -25t-170 -71.5t-142 -112t-108.5 -147 t-69.5 -177t-24.5 -200.5zM313 715q0 151 29.5 272.5t86.5 206t140 130t189 44.5q117 -1 203.5 -47t144 -133.5t86 -214t27.5 -287.5q-1 -167 -35 -288.5t-95 -201t-145 -118t-184 -37.5q-109 1 -192.5 50.5t-140 138t-85.5 212.5t-29 273zM623 1534h86l307 195q34 21 60 47 t26 57q0 11 -5.5 23t-14 22t-18 16.5t-17.5 6.5q-35 0 -68.5 -21t-60.5 -49z" />
<glyph unicode="&#xd4;" horiz-adv-x="1538" d="M74 709q0 -166 53.5 -303t146.5 -234.5t218.5 -151t269.5 -53.5q98 0 187.5 25.5t166.5 73t139.5 114.5t106.5 150t68 180t24 203q0 105 -24.5 200.5t-68.5 176.5t-105.5 146t-136.5 111t-161 70.5t-178 24.5q-100 0 -191.5 -25t-170 -71.5t-142 -112t-108.5 -147 t-69.5 -177t-24.5 -200.5zM313 715q0 151 29.5 272.5t86.5 206t140 130t189 44.5q117 -1 203.5 -47t144 -133.5t86 -214t27.5 -287.5q-1 -167 -35 -288.5t-95 -201t-145 -118t-184 -37.5q-109 1 -192.5 50.5t-140 138t-85.5 212.5t-29 273zM438 1534h74l260 221l260 -221h74 l-266 356h-133z" />
<glyph unicode="&#xd5;" horiz-adv-x="1538" d="M74 709q0 -166 53.5 -303t146.5 -234.5t218.5 -151t269.5 -53.5q98 0 187.5 25.5t166.5 73t139.5 114.5t106.5 150t68 180t24 203q0 105 -24.5 200.5t-68.5 176.5t-105.5 146t-136.5 111t-161 70.5t-178 24.5q-100 0 -191.5 -25t-170 -71.5t-142 -112t-108.5 -147 t-69.5 -177t-24.5 -200.5zM313 715q0 151 29.5 272.5t86.5 206t140 130t189 44.5q117 -1 203.5 -47t144 -133.5t86 -214t27.5 -287.5q-1 -167 -35 -288.5t-95 -201t-145 -118t-184 -37.5q-109 1 -192.5 50.5t-140 138t-85.5 212.5t-29 273zM414 1587h55q2 18 13 35.5 t28 31.5t37.5 23t42.5 9q34 0 59.5 -7.5t46.5 -18.5t40.5 -23.5t42 -23.5t51 -18.5t67.5 -7.5q45 0 84 19.5t69 51.5t48.5 73t23.5 84h-55q-6 -26 -20.5 -45.5t-34 -32.5t-43.5 -20t-49 -7q-41 0 -73 14.5t-62.5 32.5t-62.5 32.5t-73 14.5q-50 0 -89 -16.5t-68 -46 t-48.5 -69t-29.5 -85.5z" />
<glyph unicode="&#xd6;" horiz-adv-x="1538" d="M74 709q0 -166 53.5 -303t146.5 -234.5t218.5 -151t269.5 -53.5q98 0 187.5 25.5t166.5 73t139.5 114.5t106.5 150t68 180t24 203q0 105 -24.5 200.5t-68.5 176.5t-105.5 146t-136.5 111t-161 70.5t-178 24.5q-100 0 -191.5 -25t-170 -71.5t-142 -112t-108.5 -147 t-69.5 -177t-24.5 -200.5zM313 715q0 151 29.5 272.5t86.5 206t140 130t189 44.5q117 -1 203.5 -47t144 -133.5t86 -214t27.5 -287.5q-1 -167 -35 -288.5t-95 -201t-145 -118t-184 -37.5q-109 1 -192.5 50.5t-140 138t-85.5 212.5t-29 273zM444 1665q0 -21 8.5 -40t23 -33.5 t33.5 -23.5t40 -9t40.5 8.5t34 23t23 34t8.5 40.5t-8.5 40.5t-23 34.5t-34 23.5t-40.5 8.5q-20 0 -39 -9.5t-33.5 -24.5t-23.5 -34t-9 -39zM868 1665q0 -21 8.5 -40t23.5 -33.5t34.5 -23.5t40.5 -9t40.5 8.5t34 23t23 34t8.5 40.5t-8.5 40.5t-23 34.5t-34 23.5t-40.5 8.5 q-20 0 -39 -9.5t-34 -24.5t-24.5 -34t-9.5 -39z" />
<glyph unicode="&#xd7;" horiz-adv-x="2048" d="M471 141l80 -80l473 476l473 -476l80 80l-471 473l471 473l-80 80l-473 -475l-473 475l-80 -80l471 -473z" />
<glyph unicode="&#xd8;" horiz-adv-x="1538" d="M76 721q0 -338 209 -551l-138 -170l62 -49l133 166q48 -39 101.5 -67t110 -46.5t112.5 -27.5t108 -9q90 0 175.5 25.5t161 72.5t139 114t109.5 150t71.5 180.5t25.5 205.5q0 80 -11.5 149.5t-36 132.5t-64 122t-95.5 118l142 172l-62 45l-137 -168q-186 156 -422 156 q-146 0 -272.5 -55.5t-220.5 -153t-147.5 -229t-53.5 -283.5zM313 725q0 74 9 150.5t30.5 148t55.5 134.5t84.5 109.5t117.5 73.5t154 27q111 0 195.5 -46t146.5 -142l-717 -879q-76 183 -76 424zM432 225l711 881q26 -67 40.5 -121.5t22 -104t9.5 -97t2 -101.5 q0 -174 -35.5 -295.5t-98 -198t-146 -111t-179.5 -34.5q-47 0 -90.5 9.5t-84 31t-78.5 56t-73 85.5z" />
<glyph unicode="&#xd9;" horiz-adv-x="1538" d="M31 1372h32q42 0 71 -9.5t46 -31.5q19 -21 27 -63t8 -107v-553v-92q0 -49 5 -102t17.5 -106.5t37 -103.5t64.5 -93t99 -75t140.5 -50.5t189.5 -18.5q78 0 139.5 9.5t111.5 28.5t91 48.5t80 69.5q37 39 61 88t38 106.5t19 123.5t5 139v573q0 119 22 147q23 36 53.5 54 t73.5 18h54v37h-500v-37h53q79 0 121 -45q29 -35 29 -166v-571q0 -29 -0.5 -82.5t-9 -113t-29 -117t-60.5 -95.5q-19 -18 -50.5 -40t-74 -41.5t-96 -32.5t-117.5 -13q-90 0 -151.5 23.5t-102.5 63t-63.5 90t-33.5 105t-13 108.5t-2 100v616q0 59 7 97.5t19 58.5 q9 14 18.5 24.5t21.5 17t27.5 10t37.5 3.5h53v37h-569v-37zM420 1821q0 -14 9.5 -27t23.5 -24.5t30 -22t29 -18.5l307 -195h86l-295 297q-29 29 -63 49.5t-62 20.5q-31 0 -48 -21.5t-17 -58.5z" />
<glyph unicode="&#xda;" horiz-adv-x="1538" d="M31 1372h32q42 0 71 -9.5t46 -31.5q19 -21 27 -63t8 -107v-553v-92q0 -49 5 -102t17.5 -106.5t37 -103.5t64.5 -93t99 -75t140.5 -50.5t189.5 -18.5q78 0 139.5 9.5t111.5 28.5t91 48.5t80 69.5q37 39 61 88t38 106.5t19 123.5t5 139v573q0 119 22 147q23 36 53.5 54 t73.5 18h54v37h-500v-37h53q79 0 121 -45q29 -35 29 -166v-571q0 -29 -0.5 -82.5t-9 -113t-29 -117t-60.5 -95.5q-19 -18 -50.5 -40t-74 -41.5t-96 -32.5t-117.5 -13q-90 0 -151.5 23.5t-102.5 63t-63.5 90t-33.5 105t-13 108.5t-2 100v616q0 59 7 97.5t19 58.5 q9 14 18.5 24.5t21.5 17t27.5 10t37.5 3.5h53v37h-569v-37zM623 1534h86l307 195q34 21 60 47t26 57q0 11 -5.5 23t-14 22t-18 16.5t-17.5 6.5q-35 0 -68.5 -21t-60.5 -49z" />
<glyph unicode="&#xdb;" horiz-adv-x="1538" d="M31 1372h32q42 0 71 -9.5t46 -31.5q19 -21 27 -63t8 -107v-553v-92q0 -49 5 -102t17.5 -106.5t37 -103.5t64.5 -93t99 -75t140.5 -50.5t189.5 -18.5q78 0 139.5 9.5t111.5 28.5t91 48.5t80 69.5q37 39 61 88t38 106.5t19 123.5t5 139v573q0 119 22 147q23 36 53.5 54 t73.5 18h54v37h-500v-37h53q79 0 121 -45q29 -35 29 -166v-571q0 -29 -0.5 -82.5t-9 -113t-29 -117t-60.5 -95.5q-19 -18 -50.5 -40t-74 -41.5t-96 -32.5t-117.5 -13q-90 0 -151.5 23.5t-102.5 63t-63.5 90t-33.5 105t-13 108.5t-2 100v616q0 59 7 97.5t19 58.5 q9 14 18.5 24.5t21.5 17t27.5 10t37.5 3.5h53v37h-569v-37zM414 1534h73l261 221l260 -221h73l-266 356h-133z" />
<glyph unicode="&#xdc;" horiz-adv-x="1538" d="M31 1372h32q42 0 71 -9.5t46 -31.5q19 -21 27 -63t8 -107v-553v-92q0 -49 5 -102t17.5 -106.5t37 -103.5t64.5 -93t99 -75t140.5 -50.5t189.5 -18.5q78 0 139.5 9.5t111.5 28.5t91 48.5t80 69.5q37 39 61 88t38 106.5t19 123.5t5 139v573q0 119 22 147q23 36 53.5 54 t73.5 18h54v37h-500v-37h53q79 0 121 -45q29 -35 29 -166v-571q0 -29 -0.5 -82.5t-9 -113t-29 -117t-60.5 -95.5q-19 -18 -50.5 -40t-74 -41.5t-96 -32.5t-117.5 -13q-90 0 -151.5 23.5t-102.5 63t-63.5 90t-33.5 105t-13 108.5t-2 100v616q0 59 7 97.5t19 58.5 q9 14 18.5 24.5t21.5 17t27.5 10t37.5 3.5h53v37h-569v-37zM461 1665q0 -21 8.5 -40t23 -33.5t33 -23.5t39.5 -9q22 0 41.5 8.5t34 23t23 34t8.5 40.5t-8.5 40.5t-23 34.5t-34 23.5t-41.5 8.5q-20 0 -38.5 -9.5t-33 -24.5t-23.5 -34t-9 -39zM885 1665q0 -21 8.5 -40 t23 -33.5t34 -23.5t40.5 -9q22 0 41.5 8.5t34 23t23 34t8.5 40.5t-8.5 40.5t-23 34.5t-34 23.5t-41.5 8.5q-20 0 -39 -9.5t-34 -24.5t-24 -34t-9 -39z" />
<glyph unicode="&#xdd;" horiz-adv-x="1538" d="M18 1372q42 0 80 -18.5t64 -38.5q29 -23 53.5 -59t58.5 -87l385 -589v-334q0 -62 -5.5 -99t-14.5 -53q-22 -29 -52 -42t-75 -13h-49v-39h598v39h-45q-89 0 -125 43q-31 32 -31 164v352l342 535q32 51 57.5 87.5t47.5 59.5q22 25 47 42.5t49 28.5t44.5 16t33.5 5h26v37 h-491v-37q29 0 50 -4t35.5 -10.5t24 -15.5t15.5 -19q29 -38 15 -83t-60 -116l-279 -434l-293 453q-32 51 -47.5 85.5t-15.5 51.5q0 28 15 46t36 28.5t43 14t37 3.5h31v37h-605v-37zM623 1534h86l307 195q34 21 60 47t26 57q0 11 -5.5 23t-14 22t-18 16.5t-17.5 6.5 q-35 0 -68.5 -21t-60.5 -49z" />
<glyph unicode="&#xde;" horiz-adv-x="1184" d="M39 0h600v39h-43q-87 0 -123 39q-37 43 -37 176v63h74q83 0 146 4t110 12t81.5 19t60 25t45.5 30.5t38 34.5q51 51 82 119t31 146q0 51 -13 95.5t-36 82.5t-54 69t-67 56q-33 22 -67.5 37.5t-81.5 25t-112 13.5t-159 4h-78v69q0 25 1 43.5t3 33.5t5.5 29t9.5 31 q7 21 23.5 35.5t37 23.5t42 13t38.5 4h43v37h-600v-37h39q59 0 97.5 -22.5t47.5 -53.5q13 -26 13 -143v-903q0 -126 -21 -154q-39 -57 -139 -57h-37v-39zM436 389v621h49q71 0 112.5 -4t67.5 -11.5t42.5 -18.5t37.5 -26q57 -42 87 -106t30 -139q0 -67 -20.5 -125 t-65.5 -100.5t-117 -66.5t-176 -24h-47z" />
<glyph unicode="&#xdf;" d="M37 0h311v1077q0 104 14 169t39.5 101t60 49t75.5 13q44 0 81 -14.5t63.5 -46t41 -81.5t14.5 -120q0 -80 -15.5 -134t-44 -87t-70 -47.5t-93.5 -14.5v-59q79 -6 136.5 -42t95 -97.5t55.5 -147.5t18 -192q0 -141 -43 -211t-112 -70q-28 3 -44 13.5t-16 35.5q0 4 2 13 t4.5 19.5t4.5 20.5t1 17q-2 37 -23.5 59.5t-62.5 22.5q-40 0 -63 -25t-21 -65q1 -37 16.5 -68t42 -53t63 -34.5t79.5 -12.5q81 0 146 37t110.5 99t69.5 143.5t24 170.5q0 172 -74.5 275t-209.5 141q63 26 102 59t60 70.5t28.5 77.5t7.5 80q0 75 -26 137t-74 107t-115.5 69.5 t-150.5 24.5q-91 0 -160 -26.5t-116 -83.5t-71 -147t-24 -216v-773q0 -60 -6 -97.5t-22 -58.5t-42.5 -29t-66.5 -9v-39z" />
<glyph unicode="&#xe0;" horiz-adv-x="946" d="M76 225q0 -55 16.5 -100t46.5 -76.5t71.5 -49t92.5 -17.5q37 0 65.5 6t60.5 22.5t73 47t104 79.5q0 -45 9 -75t24 -48t35 -25t43 -7q111 0 227 155v60q-29 -29 -46.5 -45.5t-29 -25t-20 -11t-17.5 -2.5q-20 0 -30 11.5t-15 39.5q-2 15 -4 57.5t-2 108.5v325q0 75 -11 135 t-45 102t-97 64.5t-166 22.5q-68 0 -131 -16t-111 -46.5t-77 -75t-29 -100.5q0 -48 23 -74t65 -26q38 0 63 26.5t23 71.5l-2 62q3 49 40.5 83t102.5 34q45 0 78.5 -13t55.5 -42.5t33 -77t11 -115.5v-39q-113 -39 -196 -74.5t-142 -68.5t-96.5 -65t-58.5 -64t-29 -65t-8 -69z M133 1370q0 -14 9.5 -27t23.5 -24.5t30 -22t29 -18.5l307 -195h86l-294 297q-29 29 -63 49.5t-62 20.5q-31 0 -48.5 -21.5t-17.5 -58.5zM252 274q0 35 10 68t46.5 67.5t107 73.5t190.5 86v-364q-65 -53 -116.5 -80t-92.5 -25q-30 1 -56.5 14.5t-46 36.5t-31 54.5t-11.5 68.5 z" />
<glyph unicode="&#xe1;" horiz-adv-x="946" d="M76 225q0 -55 16.5 -100t46.5 -76.5t71.5 -49t92.5 -17.5q37 0 65.5 6t60.5 22.5t73 47t104 79.5q0 -45 9 -75t24 -48t35 -25t43 -7q111 0 227 155v60q-29 -29 -46.5 -45.5t-29 -25t-20 -11t-17.5 -2.5q-20 0 -30 11.5t-15 39.5q-2 15 -4 57.5t-2 108.5v325q0 75 -11 135 t-45 102t-97 64.5t-166 22.5q-68 0 -131 -16t-111 -46.5t-77 -75t-29 -100.5q0 -48 23 -74t65 -26q38 0 63 26.5t23 71.5l-2 62q3 49 40.5 83t102.5 34q45 0 78.5 -13t55.5 -42.5t33 -77t11 -115.5v-39q-113 -39 -196 -74.5t-142 -68.5t-96.5 -65t-58.5 -64t-29 -65t-8 -69z M252 274q0 35 10 68t46.5 67.5t107 73.5t190.5 86v-364q-65 -53 -116.5 -80t-92.5 -25q-30 1 -56.5 14.5t-46 36.5t-31 54.5t-11.5 68.5zM295 1083h86l307 195q34 22 60 47.5t26 56.5q0 11 -5.5 23t-14 22t-18 16.5t-17.5 6.5q-34 0 -67.5 -21t-61.5 -49z" />
<glyph unicode="&#xe2;" horiz-adv-x="946" d="M76 225q0 -55 16.5 -100t46.5 -76.5t71.5 -49t92.5 -17.5q37 0 65.5 6t60.5 22.5t73 47t104 79.5q0 -45 9 -75t24 -48t35 -25t43 -7q111 0 227 155v60q-29 -29 -46.5 -45.5t-29 -25t-20 -11t-17.5 -2.5q-20 0 -30 11.5t-15 39.5q-2 15 -4 57.5t-2 108.5v325q0 75 -11 135 t-45 102t-97 64.5t-166 22.5q-68 0 -131 -16t-111 -46.5t-77 -75t-29 -100.5q0 -48 23 -74t65 -26q38 0 63 26.5t23 71.5l-2 62q3 49 40.5 83t102.5 34q45 0 78.5 -13t55.5 -42.5t33 -77t11 -115.5v-39q-113 -39 -196 -74.5t-142 -68.5t-96.5 -65t-58.5 -64t-29 -65t-8 -69z M137 1083h74l260 222l260 -222h74l-266 357h-133zM252 274q0 35 10 68t46.5 67.5t107 73.5t190.5 86v-364q-65 -53 -116.5 -80t-92.5 -25q-30 1 -56.5 14.5t-46 36.5t-31 54.5t-11.5 68.5z" />
<glyph unicode="&#xe3;" horiz-adv-x="946" d="M76 225q0 -55 16.5 -100t46.5 -76.5t71.5 -49t92.5 -17.5q37 0 65.5 6t60.5 22.5t73 47t104 79.5q0 -45 9 -75t24 -48t35 -25t43 -7q111 0 227 155v60q-29 -29 -46.5 -45.5t-29 -25t-20 -11t-17.5 -2.5q-20 0 -30 11.5t-15 39.5q-2 15 -4 57.5t-2 108.5v325q0 75 -11 135 t-45 102t-97 64.5t-166 22.5q-68 0 -131 -16t-111 -46.5t-77 -75t-29 -100.5q0 -48 23 -74t65 -26q38 0 63 26.5t23 71.5l-2 62q3 49 40.5 83t102.5 34q45 0 78.5 -13t55.5 -42.5t33 -77t11 -115.5v-39q-113 -39 -196 -74.5t-142 -68.5t-96.5 -65t-58.5 -64t-29 -65t-8 -69z M96 1169h56q2 18 13 35.5t27.5 32t37.5 23t42 8.5q34 0 59.5 -7.5t47 -18.5t41 -23.5t42 -23.5t51 -18.5t67.5 -7.5q44 0 83 19.5t69 51.5t49 73t24 84h-55q-13 -51 -55 -78t-93 -27q-41 0 -73 14.5t-62 32.5t-62.5 32.5t-72.5 14.5q-50 0 -89 -16.5t-68 -46t-48.5 -69 t-30.5 -85.5zM252 274q0 35 10 68t46.5 67.5t107 73.5t190.5 86v-364q-65 -53 -116.5 -80t-92.5 -25q-30 1 -56.5 14.5t-46 36.5t-31 54.5t-11.5 68.5z" />
<glyph unicode="&#xe4;" horiz-adv-x="946" d="M76 225q0 -55 16.5 -100t46.5 -76.5t71.5 -49t92.5 -17.5q37 0 65.5 6t60.5 22.5t73 47t104 79.5q0 -45 9 -75t24 -48t35 -25t43 -7q111 0 227 155v60q-29 -29 -46.5 -45.5t-29 -25t-20 -11t-17.5 -2.5q-20 0 -30 11.5t-15 39.5q-2 15 -4 57.5t-2 108.5v325q0 75 -11 135 t-45 102t-97 64.5t-166 22.5q-68 0 -131 -16t-111 -46.5t-77 -75t-29 -100.5q0 -48 23 -74t65 -26q38 0 63 26.5t23 71.5l-2 62q3 49 40.5 83t102.5 34q45 0 78.5 -13t55.5 -42.5t33 -77t11 -115.5v-39q-113 -39 -196 -74.5t-142 -68.5t-96.5 -65t-58.5 -64t-29 -65t-8 -69z M143 1276q0 -21 8.5 -40t23 -34t33.5 -24t40 -9t40.5 8.5t34 23.5t23 34.5t8.5 40.5t-8.5 40.5t-23 34t-34 23t-40.5 8.5q-20 0 -39 -9t-33.5 -24t-23.5 -34t-9 -39zM252 274q0 35 10 68t46.5 67.5t107 73.5t190.5 86v-364q-65 -53 -116.5 -80t-92.5 -25q-30 1 -56.5 14.5 t-46 36.5t-31 54.5t-11.5 68.5zM567 1276q0 -21 8.5 -40t23 -34t34 -24t41.5 -9q21 0 40.5 8.5t34 23.5t23 34.5t8.5 40.5t-8.5 40.5t-23 34t-34 23t-40.5 8.5q-20 0 -39 -9t-34 -24t-24.5 -34t-9.5 -39z" />
<glyph unicode="&#xe5;" horiz-adv-x="946" d="M76 225q0 -55 16.5 -100t46.5 -76.5t71.5 -49t92.5 -17.5q37 0 65.5 6t60.5 22.5t73 47t104 79.5q0 -45 9 -75t24 -48t35 -25t43 -7q111 0 227 155v60q-29 -29 -46.5 -45.5t-29 -25t-20 -11t-17.5 -2.5q-20 0 -30 11.5t-15 39.5q-2 15 -4 57.5t-2 108.5v325q0 75 -11 135 t-45 102t-97 64.5t-166 22.5q-68 0 -131 -16t-111 -46.5t-77 -75t-29 -100.5q0 -48 23 -74t65 -26q38 0 63 26.5t23 71.5l-2 62q3 49 40.5 83t102.5 34q45 0 78.5 -13t55.5 -42.5t33 -77t11 -115.5v-39q-113 -39 -196 -74.5t-142 -68.5t-96.5 -65t-58.5 -64t-29 -65t-8 -69z M252 274q0 35 10 68t46.5 67.5t107 73.5t190.5 86v-364q-65 -53 -116.5 -80t-92.5 -25q-30 1 -56.5 14.5t-46 36.5t-31 54.5t-11.5 68.5zM287 1282q0 -45 17.5 -81.5t46 -62.5t64 -40.5t72.5 -14.5t72.5 14.5t63 40.5t44.5 62.5t17 81.5q0 46 -17 83t-44.5 62.5t-63 39.5 t-72.5 14q-40 0 -76 -14.5t-63.5 -40.5t-44 -62.5t-16.5 -81.5zM358 1282q0 28 10.5 51.5t28 40.5t41 26t49.5 9q24 0 46.5 -9t40 -26t28 -40.5t10.5 -51.5q0 -26 -9.5 -49t-26.5 -40t-40 -27.5t-49 -10.5q-24 0 -47.5 8.5t-41.5 25t-29 40t-11 53.5z" />
<glyph unicode="&#xe6;" horiz-adv-x="1421" d="M76 209q0 -50 18.5 -93.5t50 -76t74 -51.5t90.5 -19q62 0 117 19t100.5 46t80 55.5l57.5 47.5q45 -59 85 -92.5t77 -50.5t73 -21t72 -4q84 0 147 30t109.5 80.5t78 116t50.5 136.5l-33 24q-35 -86 -80 -132.5t-87.5 -68t-77.5 -25t-50 -3.5q-24 0 -52.5 5.5t-57 19 t-55.5 37t-48 59.5q-31 50 -42 132t-11 210h594q-2 93 -26 165.5t-67.5 122t-105.5 75.5t-139 26q-93 0 -160.5 -28t-118.5 -97q-11 27 -31.5 50t-54.5 39.5t-82 26t-112 9.5q-91 0 -157 -22t-109 -56.5t-63.5 -75.5t-20.5 -80q0 -20 5 -38t16.5 -32t29 -22t43.5 -8 q21 2 35.5 8t24.5 23t15 49t7 86q2 46 40.5 78.5t106.5 32.5q35 0 63.5 -11t48.5 -35.5t31 -64t11 -96.5v-94q-139 -56 -236 -100.5t-158 -89.5t-88.5 -97.5t-27.5 -124.5zM252 268q0 59 30 103t78 77t107.5 58t118.5 47v-92q0 -38 3.5 -77t10 -74.5t15.5 -65.5t20 -51 q-43 -34 -75 -56t-57 -34.5t-45 -17t-40 -3.5q-35 1 -65 15.5t-52.5 40t-35.5 59t-13 71.5zM762 657q1 64 18 111t45 78t64 46t76 15t74.5 -14t60 -44t40.5 -77.5t17 -114.5h-395z" />
<glyph unicode="&#xe7;" horiz-adv-x="946" d="M72 475q0 -106 27 -193t74 -152t110.5 -105t136.5 -52l-78 -184l16 -12q22 6 47 9t50 1q35 -3 56 -24t21 -58q0 -45 -33 -67.5t-91 -22.5q-13 0 -30 2t-35 6t-35.5 8.5t-31.5 10.5l-30 -68q40 -14 84 -23.5t88 -9.5q51 0 100 12t87.5 34.5t62.5 55.5t24 76q0 39 -15 67 t-39.5 46t-57 26.5t-66.5 8.5t-61 -6l43 108q67 4 130 34.5t114 82.5t86 122t48 154l-28 15q-31 -74 -64.5 -121t-70.5 -74t-77 -37t-83 -10q-75 0 -132.5 35.5t-96.5 95t-59.5 137.5t-20.5 162q0 74 17 137t49 109.5t78.5 73t105.5 26.5q72 0 106 -34.5t39 -90.5 q3 -43 15.5 -67.5t29.5 -36.5t36 -15t34 -3q49 0 73.5 26.5t24.5 61.5q0 40 -23.5 78t-68.5 75q-91 74 -232 74q-93 0 -175.5 -36.5t-144.5 -102.5t-98 -159t-36 -206z" />
<glyph unicode="&#xe8;" horiz-adv-x="946" d="M78 465q0 -114 33 -205.5t90 -156t132.5 -99.5t160.5 -35q82 0 149.5 33t117.5 86.5t81.5 121.5t42.5 138l-33 21q-26 -66 -55 -110t-63.5 -70.5t-74.5 -37.5t-86 -10q-70 1 -133 32t-111 89t-76 142t-28 190h660q0 91 -27.5 162.5t-76.5 121.5t-116 76.5t-145 26.5 q-97 0 -178 -35t-139.5 -101.5t-91.5 -162.5t-33 -217zM174 1370q0 -14 9.5 -27t23.5 -24.5t30 -22t29 -18.5l307 -195h86l-294 297q-29 29 -63.5 49.5t-61.5 20.5q-31 0 -48.5 -21.5t-17.5 -58.5zM225 653q6 61 28 108.5t54.5 80t72 49t81.5 16.5q26 0 61.5 -10.5t68 -38.5 t55 -77.5t22.5 -127.5h-443z" />
<glyph unicode="&#xe9;" horiz-adv-x="946" d="M78 465q0 -114 33 -205.5t90 -156t132.5 -99.5t160.5 -35q82 0 149.5 33t117.5 86.5t81.5 121.5t42.5 138l-33 21q-26 -66 -55 -110t-63.5 -70.5t-74.5 -37.5t-86 -10q-70 1 -133 32t-111 89t-76 142t-28 190h660q0 91 -27.5 162.5t-76.5 121.5t-116 76.5t-145 26.5 q-97 0 -178 -35t-139.5 -101.5t-91.5 -162.5t-33 -217zM225 653q6 61 28 108.5t54.5 80t72 49t81.5 16.5q26 0 61.5 -10.5t68 -38.5t55 -77.5t22.5 -127.5h-443zM377 1083h86l307 195q34 22 60 47.5t26 56.5q0 11 -5.5 23t-14 22t-18 16.5t-17.5 6.5q-34 0 -67.5 -21 t-61.5 -49z" />
<glyph unicode="&#xea;" horiz-adv-x="946" d="M78 465q0 -114 33 -205.5t90 -156t132.5 -99.5t160.5 -35q82 0 149.5 33t117.5 86.5t81.5 121.5t42.5 138l-33 21q-26 -66 -55 -110t-63.5 -70.5t-74.5 -37.5t-86 -10q-70 1 -133 32t-111 89t-76 142t-28 190h660q0 91 -27.5 162.5t-76.5 121.5t-116 76.5t-145 26.5 q-97 0 -178 -35t-139.5 -101.5t-91.5 -162.5t-33 -217zM147 1083h74l260 222l260 -222h74l-266 357h-133zM225 653q6 61 28 108.5t54.5 80t72 49t81.5 16.5q26 0 61.5 -10.5t68 -38.5t55 -77.5t22.5 -127.5h-443z" />
<glyph unicode="&#xeb;" horiz-adv-x="946" d="M78 465q0 -114 33 -205.5t90 -156t132.5 -99.5t160.5 -35q82 0 149.5 33t117.5 86.5t81.5 121.5t42.5 138l-33 21q-26 -66 -55 -110t-63.5 -70.5t-74.5 -37.5t-86 -10q-70 1 -133 32t-111 89t-76 142t-28 190h660q0 91 -27.5 162.5t-76.5 121.5t-116 76.5t-145 26.5 q-97 0 -178 -35t-139.5 -101.5t-91.5 -162.5t-33 -217zM174 1276q0 -21 8.5 -40t23 -34t33.5 -24t40 -9t40.5 8.5t34 23.5t23 34.5t8.5 40.5t-8.5 40.5t-23 34t-34 23t-40.5 8.5q-20 0 -39 -9t-33.5 -24t-23.5 -34t-9 -39zM225 653q6 61 28 108.5t54.5 80t72 49t81.5 16.5 q26 0 61.5 -10.5t68 -38.5t55 -77.5t22.5 -127.5h-443zM598 1276q0 -21 8.5 -40t23 -34t34 -24t41.5 -9q21 0 40.5 8.5t34 23.5t23 34.5t8.5 40.5t-8.5 40.5t-23 34t-34 23t-40.5 8.5q-20 0 -39.5 -9t-34.5 -24t-24 -34t-9 -39z" />
<glyph unicode="&#xec;" horiz-adv-x="592" d="M-72 1370q0 -14 9.5 -27t23.5 -24.5t30 -22t29 -18.5l308 -195h86l-295 297q-29 29 -63 49.5t-62 20.5q-31 0 -48.5 -21.5t-17.5 -58.5zM61 864l15 -37q45 16 71.5 16.5t45.5 -16.5q10 -9 16 -24.5t8.5 -43.5t3 -70.5t0.5 -106.5v-367q0 -33 -2 -56t-5.5 -39.5 t-8.5 -27.5t-12 -20q-14 -19 -39.5 -26t-77.5 -7v-39h465v39q-29 0 -47.5 1t-31.5 5t-22.5 10.5t-19.5 18.5q-14 15 -19.5 46.5t-5.5 94.5v764h-45z" />
<glyph unicode="&#xed;" horiz-adv-x="592" d="M61 864l15 -37q45 16 71.5 16.5t45.5 -16.5q10 -9 16 -24.5t8.5 -43.5t3 -70.5t0.5 -106.5v-367q0 -33 -2 -56t-5.5 -39.5t-8.5 -27.5t-12 -20q-14 -19 -39.5 -26t-77.5 -7v-39h465v39q-29 0 -47.5 1t-31.5 5t-22.5 10.5t-19.5 18.5q-14 15 -19.5 46.5t-5.5 94.5v764h-45 zM90 1083h86l307 195q34 22 60 47.5t26 56.5q0 11 -5.5 23t-13.5 22t-17.5 16.5t-18.5 6.5q-34 0 -67.5 -21t-61.5 -49z" />
<glyph unicode="&#xee;" horiz-adv-x="592" d="M-35 1083h74l260 222l260 -222h74l-266 357h-134zM61 864l15 -37q45 16 71.5 16.5t45.5 -16.5q10 -9 16 -24.5t8.5 -43.5t3 -70.5t0.5 -106.5v-367q0 -33 -2 -56t-5.5 -39.5t-8.5 -27.5t-12 -20q-14 -19 -39.5 -26t-77.5 -7v-39h465v39q-29 0 -47.5 1t-31.5 5t-22.5 10.5 t-19.5 18.5q-14 15 -19.5 46.5t-5.5 94.5v764h-45z" />
<glyph unicode="&#xef;" horiz-adv-x="592" d="M-31 1276q0 -21 8.5 -40t23 -34t33.5 -24t40 -9t40.5 8.5t34 23.5t23 34.5t8.5 40.5t-8.5 40.5t-23 34t-34 23t-40.5 8.5q-20 0 -39 -9t-33.5 -24t-23.5 -34t-9 -39zM61 864l15 -37q45 16 71.5 16.5t45.5 -16.5q10 -9 16 -24.5t8.5 -43.5t3 -70.5t0.5 -106.5v-367 q0 -33 -2 -56t-5.5 -39.5t-8.5 -27.5t-12 -20q-14 -19 -39.5 -26t-77.5 -7v-39h465v39q-29 0 -47.5 1t-31.5 5t-22.5 10.5t-19.5 18.5q-14 15 -19.5 46.5t-5.5 94.5v764h-45zM393 1276q0 -21 8.5 -40t23 -34t34 -24t41.5 -9q21 0 40.5 8.5t34 23.5t23 34.5t8.5 40.5 t-8.5 40.5t-23 34t-34 23t-40.5 8.5q-20 0 -39.5 -9t-34.5 -24t-24 -34t-9 -39z" />
<glyph unicode="&#xf0;" d="M70 459q0 -105 35 -194.5t95.5 -155t142.5 -103t177 -37.5q111 0 197.5 44.5t146.5 118t91.5 167.5t31.5 193t-26.5 201t-77 201.5t-125 194.5t-170.5 181l239 135l-36 57l-259 -143q-68 49 -131.5 89t-126.5 71l-26 -45q29 -21 50.5 -36.5t42 -32.5t44 -39t57.5 -56 l-241 -137l28 -58l258 142q59 -69 107 -145t90 -161q-31 22 -54 34.5t-42.5 18t-38.5 6.5t-41 1q-95 0 -175.5 -42.5t-139 -113.5t-91 -163.5t-32.5 -192.5zM262 539q1 106 21 177t52.5 114t75 61t87.5 18q67 0 121.5 -36.5t93.5 -104t60.5 -163.5t21.5 -214 q0 -92 -17 -157.5t-47.5 -107.5t-72 -61.5t-89.5 -19.5q-70 0 -127 38.5t-97 105.5t-62 157t-21 193z" />
<glyph unicode="&#xf1;" d="M10 864l17 -37q78 32 112 2q8 -7 14 -16.5t9.5 -35t5.5 -74.5t2 -134v-354q0 -54 -5.5 -88.5t-21 -54t-43.5 -26.5t-73 -7v-39h473v39q-52 0 -82.5 6.5t-47 25.5t-21.5 53.5t-5 90.5v502q62 68 124 101.5t122 33.5q84 0 116.5 -59.5t32.5 -188.5v-389q0 -55 -4.5 -89.5 t-20 -53.5t-46.5 -26t-84 -7v-39h477v39q-48 0 -77 7.5t-44.5 27.5t-21 54t-5.5 87v408q0 81 -13 146.5t-42 112t-76.5 72t-117.5 25.5q-151 0 -320 -199v199h-43zM188 1169h56q2 18 13 35.5t28 32t37.5 23t42.5 8.5q34 0 59.5 -7.5t46.5 -18.5t40.5 -23.5t42 -23.5 t51 -18.5t67.5 -7.5q45 0 84 19.5t69 51.5t48.5 73t23.5 84h-55q-13 -51 -55 -78t-93 -27q-41 0 -73 14.5t-62 32.5t-62.5 32.5t-72.5 14.5q-50 0 -89 -16.5t-68 -46t-48.5 -69t-30.5 -85.5z" />
<glyph unicode="&#xf2;" d="M72 467q0 -99 33 -189t92.5 -159t142 -109.5t182.5 -40.5q78 0 143 22t117 59.5t91.5 88.5t65.5 109.5t39 121.5t13 124q0 102 -33.5 190.5t-94 154t-145 103t-186.5 37.5q-107 0 -192.5 -44t-145 -116t-91 -164t-31.5 -188zM174 1370q0 -14 9.5 -27t23.5 -24.5t30 -22 t29 -18.5l307 -195h86l-294 297q-29 29 -63.5 49.5t-61.5 20.5q-31 0 -48.5 -21.5t-17.5 -58.5zM264 553q0 103 21.5 172.5t55.5 111t76 59t83 17.5q69 0 124 -38.5t93.5 -105.5t59 -158t20.5 -197q0 -102 -17 -172.5t-47.5 -114t-73.5 -63t-94 -19.5q-68 0 -123.5 41 t-95 111t-61 162t-21.5 194z" />
<glyph unicode="&#xf3;" d="M72 467q0 -99 33 -189t92.5 -159t142 -109.5t182.5 -40.5q78 0 143 22t117 59.5t91.5 88.5t65.5 109.5t39 121.5t13 124q0 102 -33.5 190.5t-94 154t-145 103t-186.5 37.5q-107 0 -192.5 -44t-145 -116t-91 -164t-31.5 -188zM264 553q0 103 21.5 172.5t55.5 111t76 59 t83 17.5q69 0 124 -38.5t93.5 -105.5t59 -158t20.5 -197q0 -102 -17 -172.5t-47.5 -114t-73.5 -63t-94 -19.5q-68 0 -123.5 41t-95 111t-61 162t-21.5 194zM397 1083h86l308 195q34 22 60 47.5t26 56.5q0 11 -5.5 23t-14 22t-18 16.5t-18.5 6.5q-34 0 -67.5 -21t-61.5 -49z " />
<glyph unicode="&#xf4;" d="M72 467q0 -99 33 -189t92.5 -159t142 -109.5t182.5 -40.5q78 0 143 22t117 59.5t91.5 88.5t65.5 109.5t39 121.5t13 124q0 102 -33.5 190.5t-94 154t-145 103t-186.5 37.5q-107 0 -192.5 -44t-145 -116t-91 -164t-31.5 -188zM199 1083h73l260 222l261 -222h73l-266 357 h-133zM264 553q0 103 21.5 172.5t55.5 111t76 59t83 17.5q69 0 124 -38.5t93.5 -105.5t59 -158t20.5 -197q0 -102 -17 -172.5t-47.5 -114t-73.5 -63t-94 -19.5q-68 0 -123.5 41t-95 111t-61 162t-21.5 194z" />
<glyph unicode="&#xf5;" d="M72 467q0 -99 33 -189t92.5 -159t142 -109.5t182.5 -40.5q78 0 143 22t117 59.5t91.5 88.5t65.5 109.5t39 121.5t13 124q0 102 -33.5 190.5t-94 154t-145 103t-186.5 37.5q-107 0 -192.5 -44t-145 -116t-91 -164t-31.5 -188zM174 1169h55q3 18 14 35.5t27.5 32t37.5 23 t42 8.5q51 0 84 -15.5t63 -34t66 -34t94 -15.5q45 0 84 19.5t69 51.5t49 73t24 84h-56q-12 -51 -54 -78t-93 -27q-41 0 -73 14.5t-62.5 32.5t-62.5 32.5t-72 14.5q-50 0 -89 -16.5t-68 -46t-48.5 -69t-30.5 -85.5zM264 553q0 103 21.5 172.5t55.5 111t76 59t83 17.5 q69 0 124 -38.5t93.5 -105.5t59 -158t20.5 -197q0 -102 -17 -172.5t-47.5 -114t-73.5 -63t-94 -19.5q-68 0 -123.5 41t-95 111t-61 162t-21.5 194z" />
<glyph unicode="&#xf6;" d="M72 467q0 -99 33 -189t92.5 -159t142 -109.5t182.5 -40.5q78 0 143 22t117 59.5t91.5 88.5t65.5 109.5t39 121.5t13 124q0 102 -33.5 190.5t-94 154t-145 103t-186.5 37.5q-107 0 -192.5 -44t-145 -116t-91 -164t-31.5 -188zM203 1276q0 -21 8.5 -40t23 -34t33 -24 t39.5 -9q22 0 41.5 8.5t34 23.5t23 34.5t8.5 40.5t-8.5 40.5t-23 34t-34 23t-41.5 8.5q-20 0 -38.5 -9t-33 -24t-23.5 -34t-9 -39zM264 553q0 103 21.5 172.5t55.5 111t76 59t83 17.5q69 0 124 -38.5t93.5 -105.5t59 -158t20.5 -197q0 -102 -17 -172.5t-47.5 -114t-73.5 -63 t-94 -19.5q-68 0 -123.5 41t-95 111t-61 162t-21.5 194zM627 1276q0 -21 8.5 -40t23 -34t34 -24t40.5 -9q22 0 41.5 8.5t34 23.5t23 34.5t8.5 40.5t-8.5 40.5t-23 34t-34 23t-41.5 8.5q-20 0 -39 -9t-34 -24t-24 -34t-9 -39z" />
<glyph unicode="&#xf7;" horiz-adv-x="2048" d="M410 551h1228v127h-1228v-127zM901 285q0 -26 9.5 -48t26.5 -38t39 -25.5t48 -9.5q25 0 47.5 9.5t39.5 25.5t26.5 38t9.5 48t-9.5 48.5t-26.5 39t-39.5 26t-47.5 9.5q-26 0 -48 -9.5t-39 -26t-26.5 -39t-9.5 -48.5zM901 944q0 -26 9.5 -48.5t26.5 -39t39 -26t48 -9.5 q25 0 47.5 9.5t39.5 26t26.5 39t9.5 48.5q0 25 -9.5 47.5t-26.5 39.5t-39.5 26.5t-47.5 9.5q-26 0 -48 -9.5t-39 -26.5t-26.5 -39.5t-9.5 -47.5z" />
<glyph unicode="&#xf8;" d="M41 -25l49 -45l139 160q40 -34 76 -57t71.5 -37.5t72 -20.5t77.5 -6q79 0 144.5 22.5t118 61t91.5 90t64.5 110t38.5 120t12 119.5q0 92 -28 173t-82 150l139 158l-47 45l-137 -154q-39 33 -75 55t-72 35.5t-73 19t-79 5.5q-111 0 -198 -46.5t-146.5 -119.5t-90.5 -163 t-30 -177q1 -42 9 -87.5t22.5 -90t35 -84.5t45.5 -70zM270 553q0 97 18 165.5t49.5 111t75.5 62t95 19.5q33 0 61.5 -8t55.5 -26.5t53 -50t55 -78.5l-422 -467q-21 72 -31 140.5t-10 131.5zM340 213l422 467q20 -69 30.5 -134.5t10.5 -127.5q0 -105 -18 -176.5t-49.5 -115 t-74 -62.5t-92.5 -19q-38 0 -68 8.5t-56.5 28t-51.5 51.5t-53 80z" />
<glyph unicode="&#xf9;" d="M0 913q45 0 75.5 -5.5t50 -21t28 -44.5t8.5 -76v-426q0 -57 7 -122t32.5 -120.5t74.5 -92t132 -36.5q34 0 66.5 8t69.5 30.5t82 62t105 102.5v-203h47l289 119l-14 37q-23 -9 -46 -12.5t-38 -3.5q-17 0 -29 6.5t-20 22.5t-11.5 44t-3.5 70v700h-327v-39q40 -2 69 -7 t48 -20t27.5 -41.5t8.5 -70.5v-541q-40 -40 -74 -66t-63.5 -41.5t-54 -21.5t-45.5 -6q-52 0 -83 18.5t-47.5 49.5t-22 69.5t-5.5 79.5v637h-336v-39zM215 1370q0 -14 9.5 -27t23.5 -24.5t30 -22t29 -18.5l307 -195h86l-294 297q-29 29 -63.5 49.5t-61.5 20.5 q-31 0 -48.5 -21.5t-17.5 -58.5z" />
<glyph unicode="&#xfa;" d="M0 913q45 0 75.5 -5.5t50 -21t28 -44.5t8.5 -76v-426q0 -57 7 -122t32.5 -120.5t74.5 -92t132 -36.5q34 0 66.5 8t69.5 30.5t82 62t105 102.5v-203h47l289 119l-14 37q-23 -9 -46 -12.5t-38 -3.5q-17 0 -29 6.5t-20 22.5t-11.5 44t-3.5 70v700h-327v-39q40 -2 69 -7 t48 -20t27.5 -41.5t8.5 -70.5v-541q-40 -40 -74 -66t-63.5 -41.5t-54 -21.5t-45.5 -6q-52 0 -83 18.5t-47.5 49.5t-22 69.5t-5.5 79.5v637h-336v-39zM377 1083h86l307 195q34 22 60 47.5t26 56.5q0 11 -5.5 23t-14 22t-18 16.5t-17.5 6.5q-34 0 -67.5 -21t-61.5 -49z" />
<glyph unicode="&#xfb;" d="M0 913q45 0 75.5 -5.5t50 -21t28 -44.5t8.5 -76v-426q0 -57 7 -122t32.5 -120.5t74.5 -92t132 -36.5q34 0 66.5 8t69.5 30.5t82 62t105 102.5v-203h47l289 119l-14 37q-23 -9 -46 -12.5t-38 -3.5q-17 0 -29 6.5t-20 22.5t-11.5 44t-3.5 70v700h-327v-39q40 -2 69 -7 t48 -20t27.5 -41.5t8.5 -70.5v-541q-40 -40 -74 -66t-63.5 -41.5t-54 -21.5t-45.5 -6q-52 0 -83 18.5t-47.5 49.5t-22 69.5t-5.5 79.5v637h-336v-39zM195 1083h73l260 222l260 -222h74l-266 357h-133z" />
<glyph unicode="&#xfc;" d="M0 913q45 0 75.5 -5.5t50 -21t28 -44.5t8.5 -76v-426q0 -57 7 -122t32.5 -120.5t74.5 -92t132 -36.5q34 0 66.5 8t69.5 30.5t82 62t105 102.5v-203h47l289 119l-14 37q-23 -9 -46 -12.5t-38 -3.5q-17 0 -29 6.5t-20 22.5t-11.5 44t-3.5 70v700h-327v-39q40 -2 69 -7 t48 -20t27.5 -41.5t8.5 -70.5v-541q-40 -40 -74 -66t-63.5 -41.5t-54 -21.5t-45.5 -6q-52 0 -83 18.5t-47.5 49.5t-22 69.5t-5.5 79.5v637h-336v-39zM215 1276q0 -21 8.5 -40t23 -34t33 -24t39.5 -9q22 0 41.5 8.5t34 23.5t23 34.5t8.5 40.5t-8.5 40.5t-23 34t-34 23 t-41.5 8.5q-20 0 -38.5 -9t-33 -24t-23.5 -34t-9 -39zM639 1276q0 -21 8.5 -40t23 -34t34 -24t40.5 -9q22 0 41.5 8.5t34 23.5t23 34.5t8.5 40.5t-8.5 40.5t-23 34t-34 23t-41.5 8.5q-20 0 -39 -9t-34 -24t-24 -34t-9 -39z" />
<glyph unicode="&#xfd;" d="M12 913q39 -3 67 -21t48 -42t33 -50l22 -44l342 -717l-67 -166q-18 -45 -37 -75.5t-37.5 -49t-36 -26t-33.5 -7.5q-6 0 -23 6t-38.5 12.5t-44 12.5t-39.5 6q-53 0 -80 -26t-27 -68q0 -25 10.5 -46.5t29.5 -37.5t45 -25.5t57 -9.5q45 0 90.5 18.5t87.5 54.5t79 88t64 120 l387 950q19 47 35 74.5t32 42.5t34 19.5t41 6.5v39h-310v-39q26 0 42 -2t25 -5t13.5 -7t7.5 -8q6 -9 8 -22t0 -28.5t-7 -31.5t-13 -31l-213 -526l-231 479q-17 37 -26 64t-9 49q0 34 28 51.5t66 17.5h23v39h-445v-39zM397 1083h86l308 195q34 22 60 47.5t26 56.5 q0 11 -5.5 23t-14 22t-18 16.5t-18.5 6.5q-34 0 -67.5 -21t-61.5 -49z" />
<glyph unicode="&#xfe;" d="M-8 -416v-39h500v39q-56 3 -88.5 11t-49 27.5t-20.5 54t-4 90.5v288q34 -30 61.5 -47t54 -26t53 -11t58.5 -2q99 1 179.5 44t137.5 116.5t88 172t31 210.5q0 99 -26 184.5t-73 148t-112.5 98.5t-144.5 36q-43 0 -82.5 -11.5t-77 -38t-74 -69.5t-73.5 -106v725h-39 l-293 -117l12 -35q24 9 41.5 12.5t31 3t23 -4.5t17.5 -9q11 -6 18 -13.5t10.5 -23t5 -43.5t1.5 -75v-1403q0 -64 -5.5 -100t-22.5 -54.5t-50 -24t-88 -8.5zM330 336v356q50 51 82.5 79.5t56.5 41.5t43 15.5t41 2.5q58 0 105 -31.5t80 -87t51 -132t18 -166.5 q0 -89 -18 -159.5t-51 -120t-80 -76t-105 -25.5q-46 1 -82.5 14.5t-63.5 34.5t-43.5 48t-23.5 54q-5 20 -7.5 57.5t-2.5 94.5z" />
<glyph unicode="&#xff;" d="M12 913q39 -3 67 -21t48 -42t33 -50l22 -44l342 -717l-67 -166q-18 -45 -37 -75.5t-37.5 -49t-36 -26t-33.5 -7.5q-6 0 -23 6t-38.5 12.5t-44 12.5t-39.5 6q-53 0 -80 -26t-27 -68q0 -25 10.5 -46.5t29.5 -37.5t45 -25.5t57 -9.5q45 0 90.5 18.5t87.5 54.5t79 88t64 120 l387 950q19 47 35 74.5t32 42.5t34 19.5t41 6.5v39h-310v-39q26 0 42 -2t25 -5t13.5 -7t7.5 -8q6 -9 8 -22t0 -28.5t-7 -31.5t-13 -31l-213 -526l-231 479q-17 37 -26 64t-9 49q0 34 28 51.5t66 17.5h23v39h-445v-39zM215 1225q0 -21 8.5 -40.5t23 -34t33 -23.5t39.5 -9 q22 0 41.5 8.5t34 23t23 34t8.5 41.5q0 21 -8.5 40.5t-23 34t-34 23t-41.5 8.5q-20 0 -38.5 -9t-33 -24t-23.5 -34t-9 -39zM639 1225q0 -21 8.5 -40.5t23 -34t34 -23.5t40.5 -9q22 0 41.5 8.5t34 23t23 34t8.5 41.5q0 21 -8.5 40.5t-23 34t-34 23t-41.5 8.5q-20 0 -39 -9 t-34 -24t-24 -34t-9 -39z" />
<glyph unicode="&#x152;" horiz-adv-x="1894" d="M78 702q0 -150 46.5 -281t130.5 -228t201.5 -153t258.5 -56q15 0 44 1t64 3t71.5 4t67.5 4t52.5 3t25.5 1h177h503l113 354h-41q-28 -65 -62.5 -114t-72.5 -86q-27 -26 -56 -41t-62 -22.5t-71.5 -10t-85.5 -2.5h-110q-39 0 -63.5 4.5t-37.5 20t-17.5 46.5t-4.5 84v465 h188q63 0 104 -10.5t62 -30.5q23 -21 35.5 -62t17.5 -106h41v490h-41q0 -53 -11.5 -91t-37.5 -61q-24 -26 -67 -37.5t-103 -11.5h-188v555h266q76 0 118 -8t63.5 -20t30.5 -25t18 -23q17 -18 23.5 -56.5t19.5 -98.5h32l-12 307h-491q-136 0 -277 6q-91 3 -140.5 5.5 t-62.5 2.5q-157 0 -279.5 -56.5t-207 -154t-128.5 -229t-44 -281.5zM317 694q0 151 26.5 273t79.5 208.5t132.5 133.5t185.5 47q147 0 187 -94q20 -44 20 -179v-729q0 -148 -18 -196q-37 -101 -193 -101q-78 0 -139 25.5t-108 70t-79.5 105.5t-53.5 132t-30.5 148.5 t-9.5 155.5z" />
<glyph unicode="&#x153;" horiz-adv-x="1538" d="M70 461q0 -112 33.5 -203t92 -155.5t137 -99.5t169.5 -34q112 2 192 46t142 124q17 -35 44 -66.5t62.5 -54.5t79 -36.5t92.5 -12.5q135 1 225.5 94.5t128.5 288.5l-34 17q-23 -63 -49.5 -106t-57.5 -70t-67 -38.5t-76 -11.5q-67 0 -121.5 31.5t-93 90.5t-57 142.5 t-13.5 188.5h569q2 88 -20.5 159t-67 121.5t-108 77.5t-144.5 27q-97 0 -167.5 -40.5t-124.5 -125.5q-53 75 -135 119.5t-191 44.5q-93 0 -173.5 -36.5t-139.5 -104t-93 -163t-34 -214.5zM264 561q0 100 16.5 169t44.5 112t66 61.5t80 18.5q70 0 121 -39t84.5 -109.5 t50 -167.5t16.5 -213q0 -98 -16.5 -164.5t-45 -107t-67.5 -58.5t-84 -18q-62 0 -111 39.5t-83.5 109t-53 164t-18.5 203.5zM899 664q1 64 18.5 110.5t43 77t57 45t61.5 14.5q52 0 87.5 -23t57.5 -58.5t31 -79.5t9 -86h-365z" />
<glyph unicode="&#x178;" horiz-adv-x="1538" d="M18 1372q42 0 80 -18.5t64 -38.5q29 -23 53.5 -59t58.5 -87l385 -589v-334q0 -62 -5.5 -99t-14.5 -53q-22 -29 -52 -42t-75 -13h-49v-39h598v39h-45q-89 0 -125 43q-31 32 -31 164v352l342 535q32 51 57.5 87.5t47.5 59.5q22 25 47 42.5t49 28.5t44.5 16t33.5 5h26v37 h-491v-37q29 0 50 -4t35.5 -10.5t24 -15.5t15.5 -19q29 -38 15 -83t-60 -116l-279 -434l-293 453q-32 51 -47.5 85.5t-15.5 51.5q0 28 15 46t36 28.5t43 14t37 3.5h31v37h-605v-37zM440 1675q0 -21 8.5 -40t23 -33.5t33.5 -23.5t40 -9t40.5 8.5t34 23t23 34t8.5 40.5 q0 22 -8.5 41.5t-23 34t-34 23t-40.5 8.5q-20 0 -39 -9t-33.5 -24t-23.5 -34.5t-9 -39.5zM864 1675q0 -21 8.5 -40t23 -33.5t34 -23.5t41.5 -9q21 0 40.5 8.5t34 23t23 34t8.5 40.5q0 22 -8.5 41.5t-23 34t-34 23t-40.5 8.5q-20 0 -39 -9t-34 -24t-24.5 -34.5t-9.5 -39.5z " />
<glyph unicode="&#x2c6;" horiz-adv-x="668" d="M0 1083h74l260 222l260 -222h74l-267 357h-133z" />
<glyph unicode="&#x2dc;" horiz-adv-x="709" d="M0 1169h55q2 18 13.5 35.5t28 32t37.5 23t42 8.5q51 0 84 -15.5t63 -34t66 -34t94 -15.5q45 0 84 19.5t69 51.5t49 73t24 84h-56q-6 -26 -20.5 -45.5t-34 -32.5t-43.5 -20t-49 -7q-41 0 -73 14.5t-62.5 32.5t-62.5 32.5t-72 14.5q-50 0 -89 -16.5t-68 -46t-48.5 -69 t-30.5 -85.5z" />
<glyph unicode="&#x2000;" horiz-adv-x="965" />
<glyph unicode="&#x2001;" horiz-adv-x="1931" />
<glyph unicode="&#x2002;" horiz-adv-x="965" />
<glyph unicode="&#x2003;" horiz-adv-x="1931" />
<glyph unicode="&#x2004;" horiz-adv-x="643" />
<glyph unicode="&#x2005;" horiz-adv-x="482" />
<glyph unicode="&#x2006;" horiz-adv-x="321" />
<glyph unicode="&#x2007;" horiz-adv-x="321" />
<glyph unicode="&#x2008;" horiz-adv-x="241" />
<glyph unicode="&#x2009;" horiz-adv-x="386" />
<glyph unicode="&#x200a;" horiz-adv-x="107" />
<glyph unicode="&#x2010;" horiz-adv-x="709" d="M94 399h500v129h-500v-129z" />
<glyph unicode="&#x2011;" horiz-adv-x="709" d="M94 399h500v129h-500v-129z" />
<glyph unicode="&#x2012;" horiz-adv-x="709" d="M94 399h500v129h-500v-129z" />
<glyph unicode="&#x2013;" horiz-adv-x="1047" d="M100 406h848v129h-848v-129z" />
<glyph unicode="&#x2014;" horiz-adv-x="1665" d="M100 406h1467v129h-1467v-129z" />
<glyph unicode="&#x2018;" horiz-adv-x="709" d="M193 1110q0 -48 16.5 -86t42 -65t57.5 -41.5t64 -14.5q21 0 45.5 7.5t44.5 22.5t33.5 37.5t13.5 53.5q0 26 -9.5 46.5t-24.5 35t-33.5 22t-36.5 7.5q-10 0 -21 -2.5t-21.5 -6t-19.5 -6t-16 -2.5q-4 0 -10.5 2.5t-13 9.5t-11 19.5t-4.5 32.5q0 42 17 75t42.5 58.5t56 45.5 t58.5 36v45q-30 -10 -76 -32.5t-89 -62t-74 -98t-31 -139.5z" />
<glyph unicode="&#x2019;" horiz-adv-x="709" d="M199 1321q0 -26 9.5 -47t24.5 -35t33.5 -21.5t36.5 -7.5q20 0 42 8.5t36 8.5q4 0 10.5 -2.5t13 -9.5t11 -19.5t4.5 -32.5q0 -42 -17 -75t-42.5 -58.5t-56.5 -45.5t-58 -36v-45q30 10 76 32.5t89 62t74 98t31 139.5q0 48 -16.5 86t-42 65t-58 41.5t-63.5 14.5 q-21 0 -45.5 -7.5t-44.5 -22.5t-33.5 -37.5t-13.5 -53.5z" />
<glyph unicode="&#x201a;" horiz-adv-x="709" d="M201 86q0 -26 9.5 -47t24.5 -35t33.5 -21.5t36.5 -7.5q10 0 21 2.5t21.5 6t19.5 6t16 2.5q4 0 10.5 -2.5t13 -9.5t11 -19.5t4.5 -32.5q0 -42 -17 -75t-42.5 -58.5t-56 -45.5t-58.5 -36v-45q30 10 76 32.5t89 62t74 98t31 139.5q0 48 -16.5 86t-42 65t-58 41.5t-63.5 14.5 q-21 0 -45.5 -7.5t-44.5 -22.5t-33.5 -37.5t-13.5 -53.5z" />
<glyph unicode="&#x201c;" horiz-adv-x="1083" d="M70 1114q0 -48 16.5 -86t42 -65t57.5 -41.5t64 -14.5q21 0 45.5 7.5t44.5 22.5t33.5 37.5t13.5 53.5q0 26 -9.5 46.5t-24.5 35t-33.5 22t-36.5 7.5q-10 0 -21 -2.5t-21.5 -6t-19.5 -6t-16 -2.5q-4 0 -10.5 2.5t-13 9.5t-11 19.5t-4.5 32.5q0 42 17 75t42.5 58.5t56 45.5 t58.5 36v45q-30 -10 -76 -32.5t-89 -62t-74 -98t-31 -139.5zM567 1112q0 -48 16.5 -86t42.5 -65t58 -41.5t64 -14.5q21 0 45.5 7.5t44.5 22.5t33.5 37.5t13.5 53.5q0 26 -10 46.5t-25 35t-33.5 22t-36.5 7.5q-10 0 -20.5 -2.5t-21 -6t-20 -6t-16.5 -2.5q-4 0 -10.5 2.5 t-12.5 9.5t-10.5 19.5t-4.5 32.5q0 42 17 75t42.5 58.5t56 45.5t58.5 36v45q-30 -10 -76 -32.5t-89.5 -62t-74.5 -98t-31 -139.5z" />
<glyph unicode="&#x201d;" horiz-adv-x="1083" d="M199 1321q0 -26 9.5 -47t24.5 -35t33.5 -21.5t36.5 -7.5q20 0 42 8.5t36 8.5q4 0 10.5 -2.5t13 -9.5t11 -19.5t4.5 -32.5q0 -42 -17 -75t-42.5 -58.5t-56.5 -45.5t-58 -36v-45q30 10 76 32.5t89 62t74 98t31 139.5q0 48 -16.5 86t-42 65t-58 41.5t-63.5 14.5 q-21 0 -45.5 -7.5t-44.5 -22.5t-33.5 -37.5t-13.5 -53.5zM696 1319q0 -26 10 -47t25 -35t33.5 -21.5t36.5 -7.5q10 0 20.5 2.5t21 6t20 6t16.5 2.5q4 0 10.5 -2.5t13 -9.5t11 -19.5t4.5 -32.5q0 -42 -17 -75t-43 -58.5t-56.5 -45.5t-58.5 -36v-45q30 10 76 32.5t89.5 62 t74.5 98t31 139.5q0 48 -16.5 86t-42 65t-58 41.5t-63.5 14.5q-22 0 -46 -7.5t-44.5 -22.5t-34 -37.5t-13.5 -53.5z" />
<glyph unicode="&#x201e;" horiz-adv-x="944" d="M70 86q0 -26 9.5 -47t24.5 -35t33.5 -21.5t36.5 -7.5q20 0 42 8.5t36 8.5q4 0 10.5 -2.5t13 -9.5t11 -19.5t4.5 -32.5q0 -42 -17 -75t-42.5 -58.5t-56.5 -45.5t-58 -36v-45q30 10 76 32.5t89 62t74 98t31 139.5q0 48 -16.5 86t-42 65t-58 41.5t-63.5 14.5 q-21 0 -45.5 -7.5t-44.5 -22.5t-33.5 -37.5t-13.5 -53.5zM567 84q0 -26 10 -47t25 -35t33.5 -21.5t36.5 -7.5q10 0 20.5 2.5t21 6t20 6t16.5 2.5q4 0 10.5 -2.5t12.5 -9.5t10.5 -19.5t4.5 -32.5q0 -42 -17 -75t-42.5 -58.5t-56 -45.5t-58.5 -36v-45q30 10 76 32.5t89.5 62 t74.5 98t31 139.5q0 48 -16.5 86t-42.5 65t-58 41.5t-63 14.5q-22 0 -46 -7.5t-44.5 -22.5t-34 -37.5t-13.5 -53.5z" />
<glyph unicode="&#x2022;" horiz-adv-x="614" d="M72 696q0 -49 18.5 -92t50 -74.5t74.5 -50t92 -18.5t92 18.5t75 50t50.5 74.5t18.5 92t-18.5 92t-50.5 75t-75 50.5t-92 18.5t-92 -18.5t-74.5 -50.5t-50 -75t-18.5 -92z" />
<glyph unicode="&#x2026;" horiz-adv-x="2134" d="M242 88q0 -24 8 -45.5t22.5 -38t35.5 -26t48 -9.5q25 0 46.5 9.5t36.5 26t23.5 38t8.5 45.5q0 25 -9.5 46.5t-25 36.5t-36.5 23.5t-44 8.5q-49 0 -81.5 -32.5t-32.5 -82.5zM950 88q0 -24 8 -45.5t22.5 -38t36 -26t48.5 -9.5q25 0 46.5 9.5t36.5 26t23.5 38t8.5 45.5 q0 25 -9.5 46.5t-25 36.5t-36.5 23.5t-44 8.5q-50 0 -82.5 -32.5t-32.5 -82.5zM1663 88q0 -24 8 -45.5t22.5 -38t36 -26t48.5 -9.5q25 0 46 9.5t36 26t23.5 38t8.5 45.5q0 25 -9 46.5t-25 36.5t-36.5 23.5t-43.5 8.5q-50 0 -82.5 -32.5t-32.5 -82.5z" />
<glyph unicode="&#x202f;" horiz-adv-x="386" />
<glyph unicode="&#x2039;" horiz-adv-x="709" d="M123 483l403 -491h56l-254 491l254 488h-56z" />
<glyph unicode="&#x203a;" horiz-adv-x="709" d="M127 -8h55l404 487l-404 492h-55l254 -492z" />
<glyph unicode="&#x205f;" horiz-adv-x="482" />
<glyph unicode="&#x2122;" horiz-adv-x="2087" d="M33 1202h33q10 43 24.5 71.5t37.5 45t56 23t80 6.5h78v-603q0 -48 -4 -73.5t-15 -37.5t-31.5 -16t-53.5 -10v-37h391v37q-39 1 -61 8t-33 22.5t-14 41t-3 65.5v603h78q55 0 92 -10t60 -28.5t34.5 -46t14.5 -61.5h37l-17 207h-770zM905 571h318v37q-48 0 -75 5.5t-40.5 21 t-17 42t-3.5 68.5v500l322 -674h33l319 686v-514q0 -43 -5 -69.5t-18.5 -41t-37.5 -19.5t-62 -5v-37h414v37q-36 0 -59 5.5t-35.5 20.5t-17.5 41.5t-5 69.5v486q0 32 2 59t13 46t34.5 28.5t67.5 7.5v37h-291l-274 -594l-285 594h-297v-37q43 0 66.5 -7t35 -24t13.5 -44.5 t2 -67.5v-484q0 -38 -2.5 -64.5t-13.5 -42.5t-35 -23t-66 -7v-37z" />
<glyph unicode="&#xe000;" horiz-adv-x="950" d="M0 0v950h950v-950h-950z" />
</font>
</defs>
</svg>
