<?xml version="1.0" standalone="no"?>
<!DOCTYPE svg PUBLIC "-//W3C//DTD SVG 1.1//EN" "http://www.w3.org/Graphics/SVG/1.1/DTD/svg11.dtd" >
<svg xmlns="http://www.w3.org/2000/svg">
<metadata></metadata>
<defs>
<font id="benthamregular" horiz-adv-x="1024" >
<font-face units-per-em="2048" ascent="1536" descent="-512" />
<missing-glyph horiz-adv-x="409" />
<glyph unicode="&#xfb01;" horiz-adv-x="1136" d="M68 0v37q64 0 118 16t54 37l8 666h-168v45h168q0 5 -0.5 16t-0.5 16q0 529 410 529q39 0 94 -15t107 -39.5t88.5 -62.5t36.5 -78q0 -73 -25 -115t-90 -42q-40 0 -76 37t-36 79q0 17 7.5 33t18 26.5t21.5 18.5t19 12l7 3q-3 50 -61.5 81t-116.5 31q-34 0 -63 -5.5 t-51 -18.5t-40 -26.5t-30.5 -36.5t-22 -41t-15.5 -48.5t-9.5 -49.5t-5.5 -53.5t-2.5 -52t-0.5 -52.5q-1 -18 -1 -27q0 -19 2 -55.5t2 -63.5h309q132 0 252 43q-4 -346 -4 -762q2 -20 53 -34.5t86 -14.5v-33q-89 7 -218 7q-130 0 -208 -7v33q123 5 127 49v663q-4 1 -11 4 t-12.5 4.5t-9.5 2.5h-364l12 -662q1 -26 54.5 -41.5t103.5 -15.5v-37q-118 9 -268 9q-149 0 -248 -9z" />
<glyph unicode="&#xfb02;" horiz-adv-x="1196" d="M68 0v37q65 0 117.5 17t54.5 42l8 660h-168v45h168q0 5 -0.5 14t-0.5 13q0 78 10.5 149.5t38.5 143t70.5 124t112 85t158.5 32.5q47 0 121 -27.5t121 -62.5q25 3 58 18.5t67 24.5q-8 -185 -8 -346q0 -53 2 -285t2 -455q0 -23 -0.5 -75t-0.5 -80q2 -9 12 -16t27 -10.5 t32.5 -6t37 -4.5t31.5 -4v-33q-88 11 -212 11q-143 0 -231 -11v33q43 2 87.5 16.5t47.5 36.5q8 224 8 539q0 327 -8 551q0 5 -12 53q-94 102 -188 102q-43 0 -78 -16.5t-57 -40.5t-39 -62.5t-25.5 -71.5t-13.5 -79t-6 -74.5t-2 -66.5q0 -19 2 -55.5t2 -63.5h231v-45h-231 l12 -660q0 -24 56 -41.5t102 -17.5v-37q-118 9 -268 9q-149 0 -248 -9z" />
<glyph unicode="&#xfb03;" horiz-adv-x="1646" d="M68 0v37q68 1 116.5 15.5t55.5 37.5l8 666h-168v45h168q0 6 -0.5 17t-0.5 16q0 109 16.5 203t41.5 137q13 21 29 42.5t45 49t61.5 48t79 34.5t96.5 14q56 0 119.5 -32t110.5 -89q41 45 120 83t162 38q54 0 124 -24t126 -71t56 -100q0 -51 -28.5 -94t-86.5 -43 q-40 0 -66 31t-26 65q0 27 18.5 50.5t36.5 33.5l18 9q-3 50 -61.5 81t-116.5 31q-44 0 -79 -14t-57.5 -33.5t-38.5 -54.5t-24.5 -62.5t-13 -73.5t-5.5 -71.5t-2 -71.5q-1 -20 -1 -30q0 -19 2 -55.5t2 -63.5h377q70 9 164 43q-4 -346 -4 -758q5 -26 51.5 -39t87.5 -14v-33 q-89 7 -218 7q-130 0 -208 -7v33q45 2 85.5 16.5t41.5 36.5v659q-4 1 -11 4t-12.5 4.5t-9.5 2.5h-344l13 -664q5 -46 157 -55v-37q-304 8 -557 8q-283 0 -450 -8zM410 920q0 -19 2 -55.5t2 -63.5h325q-1 16 -1 51q0 249 85 362q-16 43 -90 80t-123 37q-32 0 -58.5 -9 t-45.5 -23t-34.5 -37.5t-25 -44.5t-16.5 -54t-10.5 -55.5t-6 -58.5t-2.5 -54.5t-1 -51.5v-8v-7.5v-7.5zM414 756l12 -666q3 -26 45 -40.5t88 -14.5q56 0 110 12t62 43l8 666h-325z" />
<glyph horiz-adv-x="2048" />
<glyph horiz-adv-x="2048" />
<glyph unicode="&#xd;" horiz-adv-x="2048" />
<glyph horiz-adv-x="1478" />
<glyph unicode=" "  horiz-adv-x="409" />
<glyph unicode="&#x09;" horiz-adv-x="409" />
<glyph unicode="&#xa0;" horiz-adv-x="409" />
<glyph unicode="!" horiz-adv-x="851" d="M293 97q0 126 121 126q57 0 90 -35t33 -88q0 -52 -33.5 -88.5t-83.5 -36.5q-56 0 -91.5 28.5t-35.5 93.5zM319 1139q0 57 136 57q64 0 87 -14t23 -41q0 -38 -27.5 -225t-55.5 -355l-27 -168h-74q-36 435 -57 685q-5 54 -5 61z" />
<glyph unicode="&#x22;" horiz-adv-x="446" d="M27 1204q0 86 77 86q34 0 51 -24.5t17 -55.5q0 -56 -17 -160.5t-34 -168.5q-8 -3 -16.5 -2.5t-10.5 2.5q-67 237 -67 323zM272 1204q0 86 78 86q34 0 51 -24.5t17 -55.5q0 -58 -18 -161t-35 -168q-13 -6 -25 0q-68 237 -68 323z" />
<glyph unicode="#" d="M178 780v41l148 13v225l-148 -12v40l148 13v145l82 6v-145l163 10v148l82 6v-148l148 13v-41l-148 -13v-225l148 12v-41l-148 -12v-145l-82 -6v145l-163 -10v-148l-82 -6v148zM408 840l163 10v225l-163 -10v-225z" />
<glyph unicode="$" horiz-adv-x="1175" d="M229 57q0 64 42.5 100t84.5 36q46 0 84.5 -33.5t38.5 -77.5q0 -50 -25 -82.5t-63 -32.5q-22 0 -51.5 13t-48.5 43q9 -44 38 -78.5t68.5 -54.5t80 -31t80.5 -13l-2 428q-105 49 -182 130.5t-77 160.5q0 122 64.5 206t190.5 104l-1 203h104v-199q43 -4 89.5 -20.5 t92.5 -45.5t75.5 -77t29.5 -107q0 -54 -42.5 -105t-86.5 -51q-50 0 -79 30.5t-29 86.5q0 45 28 69.5t53 24.5q57 0 95 -45q0 49 -21 87t-56 60t-72.5 33.5t-76.5 14.5v-429q296 -112 296 -286q0 -55 -15.5 -105t-48 -96.5t-92.5 -78.5t-140 -42v-156h-96l-1 153 q-52 3 -105 18.5t-105.5 44.5t-85.5 81t-33 119zM436 629q0 -103 118 -177l-2 365q-52 -24 -84 -72.5t-32 -115.5zM655 -143q52 15 85 52.5t44 75t11 78.5q0 52 -36 91t-104 74v-371z" />
<glyph unicode="%" d="M16 680q0 109 70.5 172t167.5 63q57 0 107.5 -23t87 -78.5t36.5 -133.5q0 -90 -71 -151.5t-162 -61.5q-90 0 -163 61t-73 152zM74 -135l790 1106l64 -45l-791 -1106zM117 680q0 -87 38.5 -139t96.5 -52q60 0 97.5 53t37.5 138q0 215 -133 215q-63 0 -100 -59.5 t-37 -155.5zM535 133q0 109 70 172.5t167 63.5q41 0 81 -14t74.5 -41.5t55.5 -74t21 -106.5q0 -90 -71.5 -152.5t-162.5 -62.5q-89 0 -162 62t-73 153zM635 133q0 -87 38 -138.5t97 -51.5q60 0 97.5 52.5t37.5 137.5q0 215 -133 215q-63 0 -100 -59.5t-37 -155.5z" />
<glyph unicode="&#x26;" horiz-adv-x="1255" d="M55 311v3q0 109 43 179.5t138 143.5q33 22 94 59q-47 54 -83 134.5t-36 156.5q0 53 18.5 98t48 74.5t66.5 50.5t72.5 30t68.5 9q130 0 210.5 -53t80.5 -166q0 -94 -65 -161.5t-213 -155.5q125 -171 352 -439q40 50 52 95.5t12 120.5q0 36 -25 71q-39 53 -113 53l-6 31 h389l-2 -37q-105 0 -127 -22q-12 -12 -23.5 -39.5t-11.5 -61.5q0 -58 -38.5 -133t-69.5 -114l49 -62q1 -2 13.5 -17.5t18 -22t19 -21t23 -22t23 -17t27 -13.5t27.5 -4q60 0 81.5 36t21.5 110l41 -6q0 -37 -6 -69.5t-21.5 -69t-50.5 -58.5t-86 -22q-136 0 -193 67l-77 86 q-153 -156 -342 -156q-101 0 -192 29.5t-138 95.5q-3 4 -16.5 22.5t-17.5 24.5t-13.5 25t-12.5 35t-6.5 43t-3.5 59zM213 388q0 -90 70 -189q43 -61 106.5 -99.5t130.5 -38.5q77 0 126 21.5t116 83.5q-71 88 -167 205.5t-158.5 193.5t-63.5 76q-48 -24 -82 -58t-50 -71 t-22 -66.5t-6 -57.5zM338 989q0 -88 121 -227l12 6q98 52 126 78q45 43 49 130l1 30q0 92 -42 145t-116 53q-68 0 -109.5 -63t-41.5 -152z" />
<glyph unicode="'" horiz-adv-x="409" d="M143 1206q0 50 18.5 67t49.5 17q55 0 55 -80q0 -61 -14 -169t-29 -154q-3 -10 -16 -10h-27q-2 0 -5.5 1.5t-5.5 2.5t-3 0q-23 239 -23 325z" />
<glyph unicode="(" horiz-adv-x="608" d="M100 520q0 74 14 148.5t35 137.5t56 130t66 117.5t77.5 108.5t78 94.5t79.5 84.5t70 68.5t61 56.5l53 -63q-24 -24 -103 -92.5t-134 -129.5t-91 -130q-51 -97 -68.5 -196t-17.5 -275q0 -403 64 -564q33 -82 91.5 -162t103.5 -124t86 -76l-58 -76q-52 35 -111.5 97.5 t-122.5 155t-113.5 197.5t-83 235t-32.5 257z" />
<glyph unicode=")" horiz-adv-x="608" d="M-82 1403l53 63q39 -36 61 -56.5t70 -68.5t79.5 -84.5t78 -94.5t77.5 -108.5t66 -117.5t56 -130t35 -137.5t14 -148.5q0 -127 -32.5 -257t-83 -235t-113.5 -197.5t-122.5 -155t-111.5 -97.5l-57 76q69 54 151 149.5t129 212.5q64 161 64 564q0 176 -17.5 275t-68.5 196 q-36 69 -91 130t-134 129.5t-103 92.5z" />
<glyph unicode="*" horiz-adv-x="1138" d="M158 845q0 16 14 42q23 37 63 37q20 0 37 -11q60 -35 128.5 -94t107.5 -100q-227 22 -303 65q-47 27 -47 61zM184 545q0 43 37 63q105 60 287 105q-15 -21 -39 -53t-80 -94t-90 -81q-30 -17 -51 -17q-30 0 -53 40q-11 19 -11 37zM422 1016q0 26 6 43.5t18 24.5t22.5 9.5 t25.5 2.5q33 0 53 -22.5t20 -51.5q0 -114 -53 -299q-10 23 -25.5 60t-41 116t-25.5 117zM436 410q0 38 19.5 113t38.5 131l20 55q3 -12 22 -73.5t32.5 -123.5t13.5 -109q0 -28 -20.5 -50.5t-53.5 -22.5q-15 0 -25.5 2.5t-22.5 9.5t-18 24.5t-6 43.5zM518 713q4 -1 54 -13 t82.5 -21t80.5 -27t80 -36q38 -20 38 -62q0 -20 -11 -38q-23 -39 -54 -39q-21 0 -51 17q-33 19 -87.5 74t-93.5 100zM520 719q7 7 52.5 56t91 90t86.5 65q16 10 38 10q42 0 62 -37q15 -23 15 -41q0 -33 -48 -61q-33 -19 -107 -39.5t-132 -31.5z" />
<glyph unicode="+" d="M92 412v123h367v368h123v-368h368v-123h-366v-367h-123v367h-369z" />
<glyph unicode="," horiz-adv-x="509" d="M119 113q0 66 43 102.5t90 36.5q49 0 95 -44t46 -115q0 -108 -69.5 -204t-137.5 -104l-11 31q48 23 94.5 84t49.5 110q-28 -17 -44.5 -22.5t-41.5 -5.5q-45 0 -79.5 41t-34.5 90z" />
<glyph unicode="-" horiz-adv-x="944" d="M147 532l17 134h670l-11 -138z" />
<glyph unicode="." horiz-adv-x="507" d="M123 129q0 61 42 97t89 36q50 0 93.5 -33t43.5 -100q0 -71 -38.5 -104t-98.5 -33q-48 0 -89.5 41.5t-41.5 95.5z" />
<glyph unicode="/" horiz-adv-x="618" d="M27 -262l458 1714l107 -29l-459 -1714z" />
<glyph unicode="0" d="M29 393q0 109 39.5 198.5t105.5 147.5t150 89.5t176 31.5q82 0 160 -27.5t145.5 -82t109 -147t41.5 -210.5t-67 -217.5t-173 -154t-222 -54.5q-113 0 -219 52.5t-176 152t-70 221.5zM225 393q0 -173 76.5 -277t192.5 -104q119 0 194.5 106.5t75.5 274.5q0 424 -264 424 q-126 0 -200.5 -117.5t-74.5 -306.5z" />
<glyph unicode="1" d="M180 713l492 143v-784q20 -8 70.5 -11.5t114.5 -5.5t95 -6v-47q-130 8 -321 8q-281 0 -410 -14l-6 53l272 23v665l-290 -98z" />
<glyph unicode="2" d="M88 68l363 161q77 35 149 132.5t72 187.5q0 122 -53 191t-144 69q-74 0 -138.5 -44.5t-74.5 -102.5q50 -3 84.5 -32.5t34.5 -84.5q0 -52 -40 -79.5t-89 -27.5q-43 0 -83 44t-40 114q0 39 23.5 83t65 83t109 64.5t145.5 25.5q101 0 194 -33.5t156 -103t63 -158.5 q0 -46 -13 -82t-47 -71.5t-73.5 -65t-112.5 -76.5q-51 -33 -124 -66t-120 -50l-47 -17h63q347 0 427 10q9 24 26 64.5t30 68.5l13 29h54l-99 -301h-756z" />
<glyph unicode="3" d="M80 -141l47 12q16 -107 101 -187.5t202 -80.5q64 0 117 22.5t87 58.5t57.5 83.5t33.5 95t10 94.5q0 116 -83.5 202.5t-194.5 86.5l-13 41q96 34 121 45q60 28 116 84t56 112q0 118 -62 192.5t-167 74.5q-154 0 -205 -131q51 -3 92 -36t41 -87q0 -55 -28.5 -88t-88.5 -33 q-66 0 -102.5 47t-36.5 109q0 42 27 89t71.5 87.5t110 67t135.5 26.5q96 0 181.5 -35.5t138.5 -97t53 -133.5q0 -48 -16.5 -86t-53.5 -69.5t-74 -53.5t-98 -52q45 -10 93 -35.5t91.5 -63.5t72 -93t28.5 -115q0 -214 -143.5 -338.5t-366.5 -124.5q-109 0 -217 85.5 t-133 224.5z" />
<glyph unicode="4" d="M18 51l680 803l43 -35q-14 -469 -14 -731v-47h131q100 123 131 176l31 -24q-10 -21 -33 -62.5t-38.5 -74t-26.5 -66.5q-39 0 -86.5 1t-108.5 1l2 -373h-168q2 240 2 373h-481zM111 43h452q0 495 4 571q-36 -46 -143 -172.5t-193.5 -235t-119.5 -163.5z" />
<glyph unicode="5" d="M45 -180q0 62 29 106.5t98 44.5q52 0 77 -37t25 -73q0 -46 -33.5 -76t-74.5 -33q9 -58 90 -102.5t160 -44.5q66 0 130 59t103 149.5t39 180.5q0 93 -21.5 170t-70 128.5t-115.5 51.5q-87 0 -158.5 -42t-111.5 -122q-9 0 -25 8t-28 16l-11 9l195 580l535 2l55 123h51 l-102 -261l-521 2q-92 -282 -131 -380q121 127 301 127q164 0 261.5 -106t97.5 -286q0 -118 -71.5 -225t-181.5 -169t-224 -62q-147 0 -257 84.5t-110 177.5z" />
<glyph unicode="6" d="M66 451q0 74 29.5 164.5t92 186t146 174t203.5 129t254 50.5q64 0 147.5 -27t120.5 -63l-27 -37q-49 41 -128 65.5t-150 24.5q-64 0 -127.5 -21.5t-124 -68.5t-108.5 -115t-81 -168t-43 -221q36 44 61.5 70.5t62.5 55.5t79 43.5t90 15.5h8q54 0 107.5 -15t103.5 -46.5 t88.5 -76.5t62 -109.5t23.5 -139.5q0 -161 -122.5 -264t-313.5 -103q-60 0 -119 13t-121 48t-108 89t-76 143.5t-30 202.5zM262 307q0 -125 76.5 -220t191.5 -95q103 0 163.5 95t60.5 232q0 95 -16 158.5t-47.5 96.5t-69 46t-89.5 13q-131 0 -199.5 -90.5t-70.5 -235.5z" />
<glyph unicode="7" d="M135 467l21 350l733 -6l53 61h45l-743 -1327l-80 37l620 1067q-308 8 -577 8l-31 -206z" />
<glyph unicode="8" d="M70 315q0 57 27.5 108t69 86t92 62.5t95 41.5t80.5 18q-40 8 -83 29t-85 53.5t-69 82t-27 105.5q0 55 23.5 101t60 75t84 49t93.5 28.5t89 8.5q46 0 90.5 -8t89.5 -27.5t78.5 -48.5t54.5 -75t21 -103q0 -60 -28 -110.5t-71.5 -82t-90.5 -50t-91 -23.5q47 -8 105.5 -33 t117.5 -64t98.5 -97.5t39.5 -121.5q0 -183 -114.5 -269.5t-323.5 -86.5q-87 0 -161.5 20t-135 61t-95 110.5t-34.5 160.5zM240 326q0 -55 16.5 -110.5t46.5 -103.5t80.5 -78t112.5 -30q73 0 126 26t81.5 72.5t41.5 102t13 123.5q0 74 -21 127.5t-60 84.5t-78.5 47t-92.5 27 q-28 -4 -48 -8t-50 -14t-51 -22.5t-44.5 -34.5t-38 -49.5t-24.5 -68.5t-10 -91zM321 886q0 -90 42.5 -155.5t140.5 -87.5q104 21 153.5 90t49.5 164q0 101 -55.5 169.5t-137.5 68.5q-79 0 -133 -64.5t-59 -161.5q0 -4 -0.5 -11.5t-0.5 -11.5z" />
<glyph unicode="9" d="M-82 -254l47 53q47 -81 145 -145t193 -64q77 0 140 20.5t107 53t78 83.5t55 102t36 119t22 124.5t13 128.5q-42 -64 -138.5 -115t-169.5 -51q-53 0 -106.5 14.5t-103.5 44.5t-89 72.5t-62.5 103t-23.5 130.5q0 197 115.5 314.5t310.5 117.5q60 0 119 -15t120.5 -52.5 t108 -94t76 -147.5t29.5 -205q0 -225 -79.5 -408t-236 -294t-364.5 -111q-92 0 -191.5 68.5t-150.5 152.5zM254 418q0 -153 54 -236.5t151 -83.5q107 0 189.5 78t82.5 209q0 39 -0.5 62t-2.5 63t-6.5 65t-13.5 59.5t-21 56.5t-31.5 46t-44 38t-58 23t-74.5 9 q-117 0 -171 -90t-54 -299z" />
<glyph unicode=":" horiz-adv-x="509" d="M119 111q0 62 42.5 98.5t90.5 36.5q52 0 96.5 -31t44.5 -98q0 -68 -40.5 -105t-108.5 -37q-47 0 -86 43t-39 93zM119 694q0 62 42.5 98.5t90.5 36.5q52 0 96.5 -31t44.5 -98q0 -71 -38.5 -115t-110.5 -44q-59 0 -92 45.5t-33 107.5z" />
<glyph unicode=";" horiz-adv-x="509" d="M109 688q0 60 47 96.5t96 36.5q52 0 96.5 -31t44.5 -98q0 -73 -38 -116.5t-111 -43.5q-70 0 -102.5 44t-32.5 112zM119 123q0 61 43 98t90 37q48 0 94.5 -42.5t46.5 -111.5q0 -109 -64.5 -190.5t-135.5 -89.5v4q0 6 -3.5 13.5t-7.5 12.5l-4 5q48 11 93 59t48 96 q-46 -26 -75 -26q-45 0 -85 46.5t-40 88.5z" />
<glyph unicode="&#x3c;" horiz-adv-x="1021" d="M125 426v66l670 401v-43l-447 -379v-35l424 -387v-55z" />
<glyph unicode="=" d="M92 248v123h858v-123h-858zM92 555v123h858v-123h-858z" />
<glyph unicode="&#x3e;" horiz-adv-x="1021" d="M125 850v43l670 -422v-65l-648 -412v55l424 367v35z" />
<glyph unicode="?" d="M125 991q0 29 15 68t46 80.5t71.5 76.5t97.5 57.5t118 22.5q46 0 96.5 -8.5t106.5 -32t99.5 -58t72.5 -92.5t29 -131q0 -62 -24 -110t-62.5 -78.5t-85 -55t-93.5 -46t-85.5 -44.5t-62.5 -57t-24 -77q0 -63 28 -98t81 -35q81 0 134.5 49.5t78.5 122.5l45 -29 q-70 -184 -262 -184q-67 0 -140 55.5t-73 124.5q0 68 27.5 110.5t80.5 75.5q8 5 37 22.5t41.5 26t39 27.5t40 32.5t33 35.5t29 42.5t17 47.5t7.5 55q0 122 -62 194t-163 72q-68 0 -129.5 -65.5t-71.5 -126.5q54 -4 91.5 -29t37.5 -78t-34 -88t-95 -35q-66 0 -99.5 51.5 t-33.5 108.5zM422 74q0 54 33.5 84t87.5 30q53 0 83.5 -29.5t30.5 -84.5q0 -54 -33 -85.5t-87 -31.5q-53 0 -84 31t-31 86z" />
<glyph unicode="@" horiz-adv-x="1216" d="M100 246q0 111 35 208t94 166t137.5 118.5t166 73.5t178.5 24q96 0 175.5 -28t132 -74.5t89 -108t52.5 -126t16 -130.5q0 -115 -84.5 -234t-180.5 -131l-143 -18q13 75 27 149q-2 -2 -19 -22.5t-25 -28.5l-27 -27t-34.5 -28t-37 -21t-45.5 -17t-50 -5q-92 0 -149.5 68.5 t-57.5 193.5q0 77 22.5 139.5t56.5 100.5t76 64t78 36t66 10q130 0 199 -59l8 59h137q-16 -105 -65 -528q29 3 59.5 20t61 49t50 91t19.5 135q0 39 -1.5 68t-10.5 76.5t-25 82.5t-48 74.5t-76 65t-112.5 42.5t-154.5 17q-94 0 -171.5 -33t-128 -86t-85.5 -122t-50 -138 t-15 -138q0 -87 9 -154t34.5 -133t69 -108.5t116.5 -69t172 -26.5q36 0 67.5 3t59.5 11t48.5 13.5t43 20t34 20.5t31 25t24.5 23.5t24 25.5t20 22l41 -58q-14 -11 -47 -40.5t-56 -45t-64 -35.5t-98 -29t-132 -9q-156 0 -280.5 72t-190.5 189.5t-66 254.5zM506 270 q0 -100 23 -143t87 -43q58 0 112 36t77 77l41 299q-29 19 -49 30.5t-58.5 24t-76.5 12.5q-62 0 -109 -82.5t-47 -210.5z" />
<glyph unicode="A" horiz-adv-x="1413" d="M0 -10v41h3q40 0 83.5 16t69.5 47q24 29 156.5 321.5t253.5 570.5l120 278h66l438 -1039q26 -61 51 -98.5t38.5 -47.5t33.5 -20q18 -9 38 -12t38 -3t24 -1l-4 -49q-146 6 -300 6q-164 0 -247 -6l2 39q15 -2 35 -2q73 0 100 32q14 17 14 45q0 19 -5.5 41t-11.5 35l-5 13 l-133 356h-401l-191 -447q-5 -9 -5 -19q0 -30 44 -46t86 -16l2 -33zM479 600h363l-178 432z" />
<glyph unicode="B" horiz-adv-x="1167" d="M109 -2v33q16 2 40 6t66.5 20.5t46.5 38.5q0 101 0.5 386t0.5 416q0 231 -1 288q-3 16 -34.5 30t-61.5 20l-31 7v35q119 0 289.5 -1t220.5 -1q56 0 114.5 -21.5t109 -60.5t82.5 -100.5t32 -133.5v-4q-1 -67 -30.5 -130t-94 -109t-151.5 -49q171 -16 268.5 -99.5 t97.5 -244.5q0 -42 -14.5 -86t-48 -88t-83 -78.5t-126.5 -56t-171 -21.5q-14 0 -81 1t-184.5 2t-255.5 1zM467 635l2 -500q0 -35 5 -55.5t18.5 -29.5t26 -11t37.5 -2q168 0 242.5 62t74.5 206q0 75 -18.5 133.5t-46 92.5t-66 57t-71.5 32t-71 13zM470 688l132 8 q44 3 78.5 16.5t55.5 36t35 46t20.5 55.5t8.5 54.5t3 51.5q0 80 -41 157t-113 112q-25 12 -73 12q-17 0 -53 -2t-53 -2v-545z" />
<glyph unicode="C" horiz-adv-x="1392" d="M111 612q0 150 46.5 269.5t117.5 192.5t164.5 121.5t180.5 67.5t171 19q117 0 221 -36t137 -75q33 21 42.5 41.5t16.5 70.5q0 2 0.5 4t1 4.5t0.5 4.5h64l-6 -413h-39q-26 162 -138.5 253t-316.5 91q-100 0 -176.5 -44.5t-124 -125.5t-72 -189t-26.5 -241q0 -611 428 -611 q79 0 143.5 19.5t108.5 49.5t82.5 79.5t62 94.5t51.5 110q27 -23 47 -37q-25 -60 -53 -109.5t-71.5 -101t-95 -86.5t-123.5 -57.5t-156 -22.5q-147 0 -272 42.5t-218 123.5t-145.5 207t-52.5 284z" />
<glyph unicode="D" horiz-adv-x="1343" d="M98 -2v33q75 6 122 29.5t54 62.5v1007q-1 22 -11 38t-21.5 24.5t-34.5 15.5t-35.5 9t-38.5 5q-5 1 -8 1v34q119 0 308 2.5t239 2.5q77 0 155 -20t159 -69.5t143 -123.5t101.5 -192.5t39.5 -264.5q0 -86 -23.5 -169t-75 -161.5t-125.5 -137.5t-184 -94.5t-241 -35.5 q-14 0 -81.5 1t-185.5 2t-256 1zM468 284q0 -41 0.5 -92t0.5 -57q0 -39 30.5 -68.5t78.5 -29.5q146 0 238.5 30t144.5 100.5t71 165.5t21 247v13q0 124 -12 215t-42 169.5t-82 127t-132.5 75.5t-191.5 27q-62 0 -124 -7q0 -14 0.5 -75t0.5 -106q0 -111 -1 -376t-1 -359z" />
<glyph unicode="E" horiz-adv-x="1167" d="M98 0v33q51 -2 56 -2q98 0 108 47q7 46 12.5 291t5.5 481q0 290 -8 319q-3 16 -39.5 29.5t-72.5 19.5l-35 5v34q212 -6 472 -6t425 6l6 -288h-39q-7 34 -20.5 69t-37.5 76t-63 66.5t-86 25.5h-313v-544h295q92 0 100 157h47v-358h-39q-5 74 -33.5 114.5t-80.5 40.5h-289 v-479q0 -42 16.5 -69t53.5 -27h301q51 3 100.5 88.5t58.5 173.5h45l-18 -303h-928z" />
<glyph unicode="F" horiz-adv-x="1126" d="M98 -8v33q49 0 105.5 10.5t58.5 34.5q4 50 10.5 329.5t6.5 487.5q0 250 -7 282q-3 16 -39.5 29.5t-72.5 19.5l-35 5v34q208 -9 471 -9q261 0 426 9l6 -288h-39q-7 34 -20.5 69t-37.5 76t-63 66.5t-86 25.5h-313v-544h274q93 0 101 157h47v-358h-39q-5 73 -34 114t-81 41 h-268v-487q0 -90 70 -98q26 -2 42 -2l54 2v-27v-12q-94 7 -255 7q-164 0 -282 -7z" />
<glyph unicode="G" horiz-adv-x="1495" d="M102 592q0 154 44 276.5t114.5 198.5t165 126.5t188 70.5t191.5 20q39 0 79 -8.5t70.5 -20t65.5 -30t54 -30.5t45.5 -30.5t31.5 -21.5q29 13 50 52.5t26 80.5h51l-6 -414h-62q-13 82 -40 145t-74.5 114.5t-122 78.5t-174.5 27q-102 0 -179 -32.5t-135.5 -105t-89 -198 t-30.5 -301.5q0 -112 24 -211.5t72 -181t128 -129.5t183 -48q97 0 191 43.5t143 112.5q7 68 7 161q0 75 -7 118q-77 44 -188 51v45h534v-45q-109 -12 -141 -51q-9 -17 -9 -177l5 -284h-35q-1 5 -3.5 14t-13 31t-24 39t-38 31t-54.5 14q-43 -66 -150.5 -117t-218.5 -51 q-193 0 -343.5 76t-237.5 221.5t-87 339.5z" />
<glyph unicode="H" horiz-adv-x="1511" d="M119 -8v33q2 -1 7 -1q23 0 48 2.5t55 13.5t33 30q4 24 8.5 364.5t4.5 569.5q0 152 -3 165q-4 16 -35.5 29.5t-61.5 19.5l-30 5v28q88 -8 239 -8t241 8v-39q-154 -10 -156 -47v-503h557l-2 505q0 24 -42 36t-89 14l-4 28q64 -4 168 -4q193 0 313 10v-28q-6 -1 -15.5 -2.5 t-34.5 -6.5t-44 -11t-35.5 -15t-17.5 -19q-2 -24 -2 -194q0 -844 12 -905q5 -27 56 -36.5t99 -9.5l9 1l4 -27q-90 7 -253 7q-177 0 -276 -9l2 35q57 0 104.5 12.5t47.5 44.5v528h-557v-528q0 -32 47.5 -44.5t104.5 -12.5l2 -33q-84 2 -154 2q-188 0 -350 -8z" />
<glyph unicode="I" horiz-adv-x="753" d="M119 -6v33h8q149 0 156 45q10 59 10 1097q0 16 -37 29.5t-74 19.5l-37 5v28q88 -8 241 -8t243 8v-39q-52 -4 -96 -16.5t-44 -30.5q0 -2 -1 -111t-2 -274t-1 -303q0 -271 4 -387q1 -32 48.5 -44.5t103.5 -12.5l2 -33q-84 2 -159 2q-203 0 -365 -8z" />
<glyph unicode="J" horiz-adv-x="770" d="M-149 -262q0 53 37 93t92 40q61 0 97.5 -36t36.5 -87q0 -79 -79 -131q25 -14 68 -14t83 14.5t56 38.5q36 54 46.5 107t18.5 184q10 184 10 679q0 482 -8 543q-3 16 -39.5 29.5t-71.5 19.5l-36 5v28q88 -8 239 -8q150 0 240 8v-39q-84 -6 -106 -14q-27 -11 -29 -33 q-9 -131 -9 -635q0 -63 1 -169.5t1 -150.5q0 -187 -19.5 -301.5t-78.5 -195.5q-58 -80 -128.5 -110.5t-163.5 -30.5q-130 0 -194 49t-64 117z" />
<glyph unicode="K" horiz-adv-x="1341" d="M119 -8v33q2 -1 7 -1q22 0 46.5 2.5t54.5 13.5t35 30q6 27 10.5 283t4.5 513q0 281 -5 303q-4 16 -40.5 29.5t-71.5 19.5l-35 5v28q88 -8 248 -8q162 0 252 8v-39q-149 -10 -157 -47v-647q455 523 474 572q2 5 10.5 24t8.5 25q-1 38 -34.5 57t-68.5 21l-4 28 q64 -4 146 -4q127 0 247 10v-28q-12 -1 -32 -3.5t-64.5 -17.5t-69.5 -39q-54 -50 -104 -104.5t-78 -88t-96 -120t-103 -129.5q82 -107 159.5 -216t138 -188t155.5 -186q46 -51 93 -69t126 -25l-4 -39q-37 1 -97.5 4t-107 5t-86.5 2q-70 0 -119 -5q-13 20 -57.5 92t-57 92 t-48.5 77t-54 84t-49 74t-59 87t-60 84l-102 -131l-3 -375q0 -32 48 -44.5t105 -12.5l2 -33q-84 2 -155 2q-187 0 -349 -8z" />
<glyph unicode="L" horiz-adv-x="1175" d="M98 -6v33q4 0 10.5 0.5t25.5 2t36.5 3.5t39 6.5t37.5 10t27.5 14t12.5 18.5q11 113 11 691q0 321 -5 396q-2 19 -44 32.5t-83 17.5l-41 4v34l514 3v-31q-138 -9 -145 -60q-6 -438 -6 -576q0 -195 1 -458q0 -90 72 -90l258 -2q69 0 123.5 79.5t65.5 180.5h45l-33 -309 h-922z" />
<glyph unicode="M" horiz-adv-x="1763" d="M41 1210v35l375 8q12 -23 135.5 -260t236.5 -456t148 -295l442 1003l344 15v-39q-26 -2 -63.5 -8t-81.5 -23.5t-45 -40.5v-1030q18 -49 59 -74q33 -17 79 -17l48 5v-37q-115 5 -270 5q-172 0 -266 -7v33q4 1 48 5t66 13q23 10 38.5 29.5t15.5 36.5v905l-469 -1045h-33 l-526 1033v-528v-119v-127.5v-90.5q0 -36 3.5 -48.5t20 -22t25.5 -19.5q42 -16 106 -16h12v-37q-105 7 -210 7q-121 0 -224 -9v33q146 10 185 43q11 9 18 22t8 22l2 9q4 870 4 938q-10 59 -83.5 101.5t-147.5 47.5z" />
<glyph unicode="N" horiz-adv-x="1374" d="M41 -6v33h10q164 0 174 45q10 650 10 699q0 164 -4 355q-3 16 -49 40t-90 40l-45 17v34l371 -2q84 -116 249 -333t289 -376l123 -159l2 760q-1 29 -50 45.5t-113 16.5q-19 0 -29 -1l-4 45q83 -11 207 -11q106 0 241 9v-43q-28 -2 -62 -6.5t-74.5 -19.5t-41.5 -35 q-4 -65 -4 -369l4 -801h-70q-749 1030 -784 1067q-2 -121 -2 -279q0 -135 5 -258t5 -308v-80q0 -82 72 -82q115 0 115 -4v-37q-105 7 -222 7q-130 0 -233 -9z" />
<glyph unicode="O" horiz-adv-x="1585" d="M98 608q0 118 25 217t66.5 169t100.5 125t123 89t138.5 56t142 30.5t137.5 8.5q50 0 104 -8t119 -29.5t125 -54t117 -86.5t98.5 -122.5t67 -165.5t25.5 -212q0 -124 -40.5 -231.5t-108 -183t-153.5 -129.5t-177.5 -80t-180.5 -26q-115 0 -223.5 27.5t-200 82t-160 129.5 t-107 176.5t-38.5 217.5zM336 623q0 -71 13.5 -147t49 -160t89 -149t142.5 -108t201 -43q188 0 307 172t119 437q0 315 -115 479t-327 164q-79 0 -144 -15.5t-129.5 -59t-108 -114t-70.5 -186.5t-27 -270z" />
<glyph unicode="P" horiz-adv-x="1124" d="M121 -2v33h9q150 0 155 45q6 60 6 524q0 462 -6 569q-1 19 -35.5 32.5t-68.5 17.5l-34 4v34q119 0 305 -2t236 -2q61 0 126 -23.5t122.5 -66.5t94 -113.5t36.5 -154.5q0 -149 -114 -238.5t-312 -89.5q-49 0 -86.5 5.5t-50.5 11.5l-12 6l-3 -496q0 -37 43 -54t103 -17 q11 0 33 2v-31q-332 4 -547 4zM492 621q37 -11 135 -11q61 0 108.5 25.5t74.5 67.5t41 91t15 101q0 49 -3 84t-13.5 75.5t-29.5 67.5t-53.5 49t-82.5 31q-32 6 -84 6q-17 0 -53 -1t-55 -1v-585z" />
<glyph unicode="Q" horiz-adv-x="1478" d="M74 612q0 118 23.5 216.5t63.5 168.5t97 124.5t118.5 88t134 55t139 30t136.5 8.5q49 0 102 -8.5t115.5 -30.5t119.5 -55t111 -87.5t93.5 -122.5t63.5 -164.5t24 -209.5q0 -133 -58 -255.5t-150.5 -208t-210 -136t-234.5 -50.5q-144 0 -270 44.5t-218.5 125.5t-146 201.5 t-53.5 265.5zM311 627q0 -51 4.5 -101.5t17 -112.5t32.5 -116.5t54 -107t78.5 -90t109 -60.5t142.5 -23q90 0 159.5 18t115 44t77.5 74t48.5 89t25 110t10 115t1.5 124q0 120 -11 216t-39.5 184.5t-75 148t-120 94.5t-170.5 35q-55 0 -102.5 -7.5t-95 -27t-85.5 -50.5 t-72 -81t-56 -116t-35 -157t-13 -202zM455 -285q0 37 24.5 98.5t61.5 98.5q22 21 71 35t96 14h3q55 -1 116 -25.5t117 -60t112.5 -70.5t120.5 -59.5t123 -24.5q72 0 101 44t29 126v11l57 12v-24q0 -85 -20 -155t-69.5 -118.5t-121.5 -48.5q-89 0 -168 32.5t-137 79 t-111 92.5t-110.5 78.5t-114.5 32.5q-33 0 -62 -25t-45.5 -58.5t-25.5 -58t-10 -34.5q-10 0 -19.5 2t-13.5 4z" />
<glyph unicode="R" horiz-adv-x="1273" d="M98 -2v35q156 0 164 45q8 32 8 69q9 193 9 510q0 461 -9 506q-4 16 -40 30t-70 20l-35 6v34q93 -3 278 -3q66 0 166 1t129 0q56 0 114.5 -21t109 -59t82.5 -99t32 -133q0 -101 -97.5 -184t-231.5 -87q45 -4 84 -20t68 -35.5t56.5 -54.5t44.5 -60.5t37.5 -72.5t30 -71.5 t27.5 -74.5q8 -21 22.5 -61t21 -56t16.5 -37.5t20 -34.5q15 -22 31 -35.5t34 -19.5t29 -7.5t31 -2.5v-29l-363 6q0 2 0.5 7.5t0.5 8.5q0 77 -54 277q-92 336 -244 338l-133 2l2 -498q0 -18 1 -29.5t5 -26t11 -22.5t20.5 -14t32.5 -6q88 -1 88 -4l-2 -39q-99 7 -300 7 q-157 0 -227 -5zM469 682q109 -2 136 -2q113 0 171.5 77.5t58.5 186.5q0 93 -40 166t-107 90q-43 11 -111 11q-50 0 -108 -7v-522z" />
<glyph unicode="S" horiz-adv-x="1175" d="M166 -2l4 364h41q17 -79 41.5 -137t65.5 -107t105.5 -74.5t151.5 -25.5q85 0 143.5 25t87 68t39.5 85.5t11 92.5q0 177 -297 278q-159 55 -251.5 158.5t-92.5 220.5q0 59 10.5 108.5t37.5 97.5t69.5 81.5t111.5 53.5t158 20q86 0 154 -36.5t108 -78.5q50 6 80 84h29 l-6 -387h-39q-4 27 -8.5 70t-8 63.5t-14 50.5t-29.5 57q-41 60 -109.5 99t-160.5 39q-94 0 -159.5 -73.5t-65.5 -150.5q0 -85 80 -158.5t211 -121.5q182 -66 292.5 -173.5t110.5 -238.5q0 -80 -23.5 -145.5t-76.5 -120.5t-150.5 -86t-232.5 -31q-26 0 -50.5 2.5t-47 8 t-41 10.5t-38 14.5t-32 15.5t-29.5 17t-24 15.5t-22 15t-17 12.5q-27 -12 -40.5 -28.5t-33.5 -53.5h-43z" />
<glyph unicode="T" horiz-adv-x="1200" d="M70 887l8 370q208 -6 570 -6q353 0 503 6l4 -370h-39q-17 320 -166 321l-233 2l2 -1022q0 -67 37 -114q30 -37 164 -37v-39h-615v39h25q108 0 135 37q43 55 43 114l2 1022q-167 2 -211 2q-47 0 -84.5 -35t-59 -89t-32.5 -105t-14 -96h-39z" />
<glyph unicode="U" horiz-adv-x="1525" d="M104 1223v28q88 -8 263 -8q178 0 268 8v-39q-118 -9 -156 -47q-2 -98 -2 -319l2 -410q0 -108 21.5 -187t53.5 -122t80.5 -68t91 -32t97.5 -7q61 0 109 11t92.5 40.5t73.5 77.5t46 125t17 180q0 23 0.5 56t0.5 88q0 255 -9 571q-3 16 -45 29.5t-82 19.5l-41 5v28 q88 -8 220 -8q128 0 218 8v-39q-96 -7 -176 -47q-6 -115 -6 -306l6 -382q0 -240 -115.5 -374.5t-343.5 -141.5q-70 0 -138.5 13t-140 47.5t-125 87t-88 140t-34.5 198.5q0 5 3.5 63.5t7 169.5t3.5 243q0 129 -4 246q-3 16 -45 29.5t-83 19.5z" />
<glyph unicode="V" horiz-adv-x="1400" d="M0 1223v28q88 -8 287 -8q205 0 295 8v-39q-36 -3 -89 -12.5t-59 -21.5q-7 -15 -11.5 -34t-5.5 -30l-1 -12q171 -422 364 -854q365 844 365 899q0 30 -41 43l-121 33v28q88 -8 210 -8q118 0 208 8v-39q-84 -5 -133 -34q-14 -8 -34 -35t-33 -49l-13 -23q-54 -157 -210 -532 t-218 -568l-80 -2q-100 245 -256 599t-193 448q-55 137 -118 168q-53 26 -113 39z" />
<glyph unicode="W" horiz-adv-x="2027" d="M47 1223v28q88 -8 306 -8q227 0 317 8v-39q-26 -2 -91.5 -18.5t-72.5 -28.5q-11 -24 -11 -61q0 -56 21 -117q38 -111 83 -230t98 -257.5t71 -184.5q21 59 110.5 325.5t129.5 397.5l71 234l54 -2q35 -133 180.5 -501t187.5 -493q13 42 89.5 268t131 397.5t54.5 201.5 t-41 43l-121 33v28q88 -8 210 -8q118 0 208 8v-39q-85 -5 -134 -34q-14 -8 -33.5 -34.5t-32.5 -49.5l-13 -23q-41 -129 -114 -347t-131 -398.5t-104 -344.5h-67q-40 126 -103 282t-146.5 347.5t-115.5 270.5q-22 -68 -141.5 -407t-163.5 -493h-78l-376 1041 q-26 68 -58.5 110t-60.5 56q-53 26 -113 39z" />
<glyph unicode="X" horiz-adv-x="1470" d="M76 1223v28q88 -8 296 -8q216 0 306 8v-39q-30 -3 -75.5 -12.5t-51.5 -21.5q-7 -14 -7 -32q0 -11 2 -22t4 -16l3 -6l240 -391q89 122 196 269q81 111 94.5 131t13.5 27q0 38 -40 52l-121 33v28q88 -8 210 -8q118 0 208 8v-39q-84 -5 -133 -34q-14 -8 -36.5 -30t-38.5 -40 l-16 -18l-296 -416q203 -315 342 -510q3 -4 12 -17t12.5 -18t12 -16t13 -16t11.5 -13t12.5 -12t12 -8.5t12.5 -6.5q53 -21 145 -41v-28q-88 8 -286 8q-205 0 -295 -8v39q118 10 129 30q6 11 6 31q0 32 -10 49q-46 74 -116.5 179t-117.5 173l-47 68q-147 -202 -273 -373 q-56 -76 -56 -83q0 -38 40 -52l121 -33v-28q-88 8 -210 8q-118 0 -208 -8v39q84 5 133 34q14 8 36.5 30.5t38.5 40.5l15 18l338 448l-333 500q-32 41 -119 98q-12 8 -39 13.5t-56.5 9t-33.5 4.5z" />
<glyph unicode="Y" horiz-adv-x="1290" d="M27 1223v28q88 -8 277 -8q194 0 284 8v-39q-30 -3 -75.5 -12.5t-51.5 -21.5q-7 -15 -12 -33t-6 -29l-1 -10q132 -261 279 -504q290 520 290 546q0 29 -44 42l-121 33v28q88 -8 210 -8q118 0 208 8v-39q-85 -5 -134 -34q-14 -8 -33 -27t-31 -34l-13 -15q-21 -36 -83 -143 t-83.5 -145t-59 -107.5t-65.5 -128.5q0 -76 8 -508q0 -50 164 -50v-38h-545v32h22q148 0 150 45q4 231 10 435q-61 143 -154 307.5t-188 296.5q-46 64 -90 86q-54 26 -112 39z" />
<glyph unicode="Z" horiz-adv-x="1200" d="M102 14q413 616 746 1200l-471 -8q-47 -1 -82.5 -25.5t-56.5 -68.5t-30 -72.5t-18 -70.5h-38l6 288q183 -12 414 -12q206 0 524 12v-43l-600 -993q-78 -135 -78 -187q0 -22 16 -22q349 0 451 13q52 6 115.5 99.5t72.5 178.5h45l-47 -321q-257 3 -452 3q-76 0 -517 -3v32z " />
<glyph unicode="[" horiz-adv-x="565" d="M207 -262v1630h317v-45h-192v-1532h192v-53h-317z" />
<glyph unicode="\" horiz-adv-x="618" d="M27 1423l106 29l459 -1714l-107 -29z" />
<glyph unicode="]" horiz-adv-x="565" d="M63 -209h193v1532h-193v45h318v-1630h-318v53z" />
<glyph unicode="^" horiz-adv-x="843" d="M143 905l277 303l246 -297l-27 -22l-225 207l-242 -207z" />
<glyph unicode="_" horiz-adv-x="1062" d="M90 -39h868v-98h-868v98z" />
<glyph unicode="`" horiz-adv-x="843" d="M203 1174l57 67l313 -287l-45 -30z" />
<glyph unicode="a" horiz-adv-x="935" d="M102 215q0 47 18.5 84.5t47.5 61.5t71 41.5t81 26.5t86.5 14.5t79 7t67 1.5t41.5 1q6 67 6 147q0 191 -174 191q-59 0 -94.5 -26.5t-44.5 -62.5q57 0 57 -88q0 -37 -20.5 -61t-42.5 -31.5t-43 -7.5q-38 0 -68.5 35t-30.5 78q0 72 94 143q77 57 211 57q81 0 153 -32 t120.5 -99.5t48.5 -156.5q0 -65 -4 -184.5t-4 -170.5q0 -27 1.5 -46.5t7 -41.5t19 -33.5t33.5 -11.5q37 0 55 26.5t31 88.5l31 -19q-12 -76 -61.5 -118.5t-131.5 -42.5q-68 0 -102 45t-39 106q-3 -3 -8 -9q-25 -28 -43 -45.5t-52 -44.5t-73 -41t-80 -15q-46 0 -87.5 12.5 t-78 38.5t-57.5 73t-21 109zM274 238q0 -87 42.5 -126.5t109.5 -39.5q57 0 100 35t68 81v236l-60 -6t-57 -6t-49 -6.5t-45.5 -10t-36 -15t-32 -21.5t-21 -29.5t-15.5 -40t-4 -51.5z" />
<glyph unicode="b" horiz-adv-x="1044" d="M61 1235v25q209 10 314 59l-8 -664q28 38 47.5 61t53 52t74 43t89.5 14q73 0 135 -23.5t111.5 -72t77.5 -130t28 -189.5q0 -98 -33.5 -181t-87.5 -136.5t-119.5 -83t-132.5 -29.5q-126 0 -258 147q-26 -29 -53.5 -80t-34.5 -61q-18 -3 -30 -3l-27 3q5 268 5 638 q0 376 -5 568q0 34 -146 43zM375 422l6 -250q2 -5 6 -13t20 -28.5t35.5 -36t53 -28.5t71.5 -13q100 0 164 102.5t64 260.5q0 60 -9 115t-30 110.5t-64.5 89t-105.5 33.5q-34 0 -66.5 -16.5t-55 -39.5t-40.5 -46t-26 -40l-9 -16z" />
<glyph unicode="c" horiz-adv-x="868" d="M102 420q0 87 28.5 159t72 117t100 76t109.5 44t102 13q72 0 143 -28.5t119.5 -83t48.5 -119.5q0 -77 -39 -117.5t-79 -40.5q-113 0 -113 109q0 43 26 73.5t58 30.5q38 0 67 -26q-41 168 -235 168q-97 0 -162 -118.5t-65 -295.5q0 -85 30.5 -163.5t87.5 -129.5t127 -51 q49 0 88.5 14.5t62.5 32.5t43.5 48.5t28 47.5t17.5 46q2 3 2.5 5.5t1.5 4.5l55 -39q-10 -24 -24.5 -49.5t-42.5 -59t-61.5 -58.5t-83.5 -43t-105 -18q-189 0 -298.5 115t-109.5 336z" />
<glyph unicode="d" horiz-adv-x="1003" d="M123 389q0 191 111.5 312.5t285.5 121.5q44 0 81.5 -12.5t60 -30.5t38 -36.5t21.5 -31.5l6 -12v498q-7 41 -143 41l2 35q203 0 313 39q-11 -354 -11 -782q0 -304 7 -465q1 -13 16 -22t31 -11.5t37.5 -4.5t24.5 -3v-25q-210 -7 -256 -20l-17 147q-44 -55 -114 -97 t-140 -42q-157 0 -255.5 111.5t-98.5 289.5zM326 408q0 -355 202 -355q72 0 129.5 71.5t57.5 137.5l12 184l-8 181q-2 6 -6.5 16.5t-21 37t-37 46.5t-56 36.5t-76.5 16.5q-56 0 -96 -31.5t-61 -87t-30 -117.5t-9 -136z" />
<glyph unicode="e" horiz-adv-x="901" d="M102 381q0 96 26.5 172.5t68.5 124t97.5 79t109 44t108.5 12.5q49 0 96 -12t94 -38t82.5 -76.5t49.5 -119.5q8 -40 8 -79q0 -32 -2 -52l-541 -2v-45q0 -66 12.5 -130t36.5 -120t65 -90.5t93 -34.5q63 0 115 23t84 60t50 66.5t29 59.5l56 -39q-10 -23 -25 -48t-44.5 -57 t-66 -56t-90.5 -41t-116 -17q-81 0 -152 25.5t-126 75.5t-86.5 131t-31.5 184zM301 465l361 2q2 21 2 64q0 60 -11 100q-16 63 -64.5 104t-119.5 41q-73 0 -116.5 -84t-51.5 -227z" />
<glyph unicode="f" horiz-adv-x="778" d="M150 0v37q170 0 172 51l8 668h-168v45h168q0 7 -0.5 21t-0.5 21q0 498 349 498q55 0 119 -19t115 -60.5t51 -94.5q0 -51 -28.5 -94t-86.5 -43q-40 0 -66 31t-26 65q0 17 7.5 33t18 26.5t21.5 18.5t19 12l7 3q-3 49 -50 70.5t-107 21.5q-89 0 -134 -70q-47 -74 -47 -252 q0 -85 2.5 -122.5t2.5 -65.5h190v-45h-190l12 -668q3 -26 32 -40t66 -14q12 0 60 3v-37q-118 9 -268 9q-149 0 -248 -9z" />
<glyph unicode="g" horiz-adv-x="954" d="M82 -256q0 38 17 69.5t51 57t71.5 44.5t91.5 40q-3 -1 -9.5 0t-8.5 1q-58 0 -111 41.5t-53 117.5q0 32 13 59t38.5 47.5t43.5 31.5t48 26q-1 1 -12.5 12t-18.5 18t-20.5 23t-22.5 29t-20.5 32.5t-18 38t-11.5 42t-5 46.5q0 112 90 200.5t228 88.5q64 0 121 -14.5 t82 -28.5l24 -14q93 82 160 82q94 0 94 -76q0 -36 -15 -59t-43 -23q-20 0 -38.5 19t-33 38t-23.5 19q-49 0 -76 -31q3 -2 9 -7t20.5 -22.5t25.5 -38t20 -55t9 -72.5q0 -72 -31.5 -132t-80.5 -96t-103.5 -55.5t-104.5 -19.5q-38 0 -79 8.5t-63 17.5l-22 9q-9 -4 -22.5 -10.5 t-36.5 -27.5t-25 -42q1 -22 12.5 -36t33 -19.5t40 -7.5t45.5 -2q176 0 248 -15q61 -12 102 -25.5t79.5 -40t57.5 -70t19 -105.5q0 -150 -131 -238t-327 -88q-167 0 -247.5 62.5t-80.5 150.5zM225 -242q0 -32 11.5 -64t36 -61.5t69 -48t102.5 -18.5q140 0 215.5 58.5 t75.5 139.5q0 114 -77 150.5t-287 36.5q-6 -2 -16 -5.5t-35 -19t-44 -35.5t-35 -55.5t-16 -77.5zM303 526q0 -114 47 -191t127 -77q73 0 122.5 65t49.5 199q0 120 -55 186t-123 66q-60 0 -114 -72t-54 -176z" />
<glyph unicode="h" horiz-adv-x="1126" d="M123 0v33q38 0 82.5 11.5t44.5 29.5q0 73 2.5 310t2.5 371q0 299 -5 441q-15 15 -34 23t-34 10.5t-59 7.5v33h1q164 0 290 45l-4 -701q20 32 25 39t26 36.5t32 39.5t35 30.5t44.5 28.5t50 15.5t61.5 7.5q59 0 107 -23t77 -57.5t48.5 -76.5t27 -76.5t7.5 -62.5 q0 -58 -0.5 -203.5t-0.5 -187.5v-50q1 -13 13.5 -21.5t29.5 -12t40 -5t41 -2.5h11v-33q-79 8 -214 8q-138 0 -216 -8v33q4 0 15.5 0.5t18.5 1t19 1t19.5 2l17.5 3.5t16.5 4.5t12.5 6.5t9 9t3 11v2v477q0 184 -137 184q-43 0 -76 -10.5t-62.5 -37t-48.5 -51t-52 -73.5v-489 q0 -9 4.5 -15.5t14.5 -11t19.5 -7t25.5 -4t25.5 -2t26.5 -1t23 -0.5v-33q-91 8 -224 8t-202 -8z" />
<glyph unicode="i" horiz-adv-x="626" d="M141 0v33q85 3 108 16q17 9 19 25v671q-64 21 -127 21v33q182 7 291 45q-4 -346 -4 -770q8 -41 139 -41v-33q-89 7 -217 7q-131 0 -209 -7zM229 1159q0 49 35 86t76 37q45 0 84 -33.5t39 -77.5q0 -53 -36 -87.5t-87 -34.5q-40 0 -75.5 31.5t-35.5 78.5z" />
<glyph unicode="j" horiz-adv-x="634" d="M-63 -276q0 78 32.5 114.5t79.5 36.5q37 0 61.5 -28t24.5 -62q0 -31 -15.5 -58.5t-47.5 -35.5q7 -23 33.5 -36t52.5 -13q79 0 110 57q15 29 15 272v774q-20 7 -39 10.5t-45 5.5t-43 5v33q93 0 290 45q-4 -346 -4 -873q0 -87 -31.5 -163.5t-79 -124t-99.5 -74.5t-97 -27 q-40 0 -84.5 16t-79 50t-34.5 76zM250 1171q0 49 44 80t91 31q39 0 70.5 -37t31.5 -74q0 -39 -34 -83t-72 -44q-60 0 -95.5 32t-35.5 95z" />
<glyph unicode="k" horiz-adv-x="1067" d="M61 0v33q48 2 97.5 12.5t50.5 28.5q7 176 7 606q0 348 -7 537q-16 24 -50.5 31t-97.5 9v33h11q113 0 301 45l-6 -923l200 229q30 38 30 66q0 34 -46 41q0 7 1 22.5t1 20.5h336v-39q-31 -3 -66.5 -9.5t-87.5 -25.5t-80 -45l-159 -197q66 -68 136 -149t148 -160 q79 -81 127 -111.5t88 -30.5q1 0 5 0.5t6 0.5v-29l-277 -4q-15 28 -43 66t-69 86.5t-72.5 84t-81 90t-66.5 74.5l-28 -33q-4 -90 -4 -156q0 -46 2 -100q1 -24 18 -41t36.5 -21.5t86.5 -8.5v-33q-74 7 -210 7q-134 0 -237 -7z" />
<glyph unicode="l" horiz-adv-x="544" d="M82 0v33q131 6 135 41q7 186 7 526q0 337 -7 596q-49 41 -135 41v33q113 8 307 45q-8 -169 -8 -433q0 -95 2 -358.5t2 -449.5q2 -9 12 -16t26.5 -10.5t32.5 -6t37 -4.5t31 -4v-33q-88 11 -211 11q-143 0 -231 -11z" />
<glyph unicode="m" horiz-adv-x="1626" d="M123 0v33q9 1 29.5 1t35 1t30 4.5t24 12t8.5 22.5q6 306 6 416q0 175 -6 255q-1 24 -75 24q-13 0 -52 -3v33q15 -1 44 -1q125 0 224 40l27 -213q1 2 18.5 28t20.5 30.5t19 27t23.5 28.5t23.5 22t28 21.5t29 14t35 11.5t38 3q109 0 170 -53t82 -140q32 48 52.5 75.5 t53 58.5t70.5 45t84 14q66 0 115.5 -21t77 -53t44.5 -76.5t22.5 -83.5t5.5 -83v-410q0 -26 25 -36t63.5 -11.5t46.5 -3.5v-33q-56 7 -187 7q-128 0 -243 -7v33q131 13 131 41q2 386 2 456q0 109 -30.5 157t-107.5 48q-35 0 -69.5 -15.5t-58.5 -37.5t-42.5 -44.5t-27.5 -37.5 l-10 -16v-510q0 -16 48.5 -28t90.5 -13v-33q-83 7 -220 7t-231 -7v33q39 1 85 11t46 30v458q0 113 -23.5 158t-99.5 45q-49 0 -114 -56.5t-94 -135.5v-469q0 -20 46 -30t93 -11v-33q-100 7 -242 7q-113 0 -184 -7z" />
<glyph unicode="n" horiz-adv-x="1150" d="M131 0v33q41 0 83.5 15.5t43.5 35.5q5 137 5 321q0 177 -5 314q-8 4 -15.5 7.5t-13.5 5.5t-14.5 4t-13 3t-15.5 2t-15 1.5t-19 1.5t-21 1v33q13 -1 38 -1q112 0 237 38l16 -197q128 193 270 193q68 0 121 -21.5t83.5 -54t50 -76.5t26 -83.5t6.5 -79.5v-410 q0 -21 46.5 -37t84.5 -16v-33q-171 9 -250 9q-104 0 -180 -9v33q41 2 86 17t45 34q2 335 2 405q0 111 -39.5 178.5t-116.5 67.5q-64 0 -137.5 -61t-101.5 -152v-446q0 -17 43 -28t96 -15v-33q-89 7 -218 7q-130 0 -208 -7z" />
<glyph unicode="o" horiz-adv-x="972" d="M102 424q0 119 61 215t152.5 145.5t190.5 49.5q88 0 168 -34.5t136 -91t89 -130.5t33 -152q0 -92 -24.5 -173t-72.5 -146.5t-128.5 -103.5t-184.5 -38q-420 0 -420 459zM287 389q0 -166 63.5 -269.5t177.5 -103.5q108 0 168 100t60 287q0 100 -26.5 188t-81 146 t-124.5 58q-57 0 -100.5 -26.5t-69 -67.5t-41 -97.5t-21 -107.5t-5.5 -107z" />
<glyph unicode="p" horiz-adv-x="1040" d="M61 766v31q159 0 301 37l27 -185q54 87 114.5 135t149.5 48q130 0 228 -122.5t98 -285.5q0 -82 -24 -157.5t-70.5 -139t-125 -101.5t-177.5 -38q-119 0 -205 92l2 -440q16 -22 73 -36t103 -14l-2 -28q-101 6 -255 6q-156 0 -232 -6v28q56 2 98 14.5t43 35.5q9 232 9 641 q0 261 -5 444q-84 39 -150 41zM377 377l2 -244q79 -90 215 -90q83 0 127.5 91.5t44.5 252.5q0 164 -42 259t-118 95q-75 0 -125.5 -41t-87.5 -116z" />
<glyph unicode="q" horiz-adv-x="1040" d="M123 397q0 50 14.5 106t46.5 114t77 104.5t113 76t148 29.5q58 0 123 -55t105 -119q25 17 56.5 67t31.5 83l67 8q0 -212 -3.5 -638t-4.5 -533q0 -23 42.5 -34.5t100.5 -13.5v-28q-208 10 -257 10q-92 0 -183 -10l6 28q118 0 127 48l2 501q-51 -72 -119.5 -121t-148.5 -49 q-156 0 -250 117.5t-94 308.5zM336 393q0 -160 42.5 -253t125.5 -93q42 0 79.5 15t63 39.5t43 46.5t30.5 43.5t15 23.5v227l-10 176q-81 166 -213 166q-81 0 -128.5 -111.5t-47.5 -279.5z" />
<glyph unicode="r" horiz-adv-x="864" d="M123 799q117 0 270 39l23 -240q14 37 34 71.5t51.5 74t77.5 63.5t99 24q75 0 116.5 -45.5t41.5 -128.5q0 -49 -34 -91t-77 -42q-34 0 -67.5 27.5t-34.5 66.5q0 43 57 84q-2 3 -7.5 14.5t-8.5 16t-10.5 11.5t-17.5 9.5t-24 2.5q-35 0 -68.5 -25t-56.5 -61t-41.5 -72 t-27.5 -61l-8 -25l4 -428q2 -41 139 -51v-33q-91 7 -218 7q-130 0 -208 -7v33q31 2 79 18.5t48 32.5v661q-7 4 -14 7t-17 5.5t-15.5 3.5t-19 2t-18 1.5t-22 1t-21.5 0.5z" />
<glyph unicode="s" horiz-adv-x="798" d="M123 276l33 -4q5 -44 21 -87t44 -83t74 -65t102 -25q93 0 141 40t48 112q0 109 -238 196q-48 17 -82 34.5t-66 43.5t-48.5 62t-16.5 82q0 121 81.5 189.5t217.5 68.5q36 0 68.5 -8t53.5 -19.5t37 -23t23 -19.5l7 -8l6 59h37l-4 -252h-35q-3 25 -4.5 38t-8 42t-15 46.5 t-24.5 41t-37 37t-53 23.5t-71 10q-62 0 -101 -39.5t-39 -99.5q0 -35 14 -61.5t42.5 -45t53.5 -29.5t65.5 -25.5t60.5 -23.5q219 -98 219 -239q0 -143 -80 -207t-252 -64q-41 0 -96.5 20t-90.5 40l-36 20l-10 -57h-37q-2 172 -4 280z" />
<glyph unicode="t" horiz-adv-x="774" d="M104 772v27q47 0 117 27t95 59q27 34 52 97t25 124h47q-8 -63 -8 -196v-91l227 4l-12 -51h-211v-545q0 -85 26.5 -136.5t74.5 -51.5q52 0 86 42t65 126l43 -23q-14 -38 -23.5 -59t-29 -52t-41 -47t-56 -28t-77.5 -12q-121 0 -181 66q-29 32 -40 87t-11 160v473h-168z" />
<glyph unicode="u" horiz-adv-x="1110" d="M123 758v33q177 0 289 20l-4 -547q5 -229 108 -229q46 0 91 27t77 65t57 76t37 65l13 27v438q-39 25 -119 25v33q190 0 295 20q-14 -242 -17 -397q-1 -31 -1 -101l3 -258q23 -20 121 -22v-25q-145 -7 -272 -39l-15 219q-5 -9 -15 -23t-42 -50.5t-64.5 -64t-80 -50.5 t-92.5 -23q-138 0 -193.5 72.5t-56.5 210.5l-2 481q-34 17 -117 17z" />
<glyph unicode="v" horiz-adv-x="1105" d="M61 762l5 29q193 -10 272 -10q101 0 182 10l-4 -29q-109 0 -109 -57q0 -14 7 -29l217 -533l196 533q7 19 7 30q0 18 -10 29.5t-30.5 17t-34.5 7t-38 2.5l4 29q50 -7 150 -7q99 0 169 7l-4 -29q-66 0 -96.5 -23.5t-54.5 -87.5l-254 -671h-107l-311 700q-20 46 -53.5 62.5 t-102.5 19.5z" />
<glyph unicode="w" horiz-adv-x="1583" d="M74 758l4 33q145 -7 264 -7q129 0 207 7l-4 -29h-3q-32 0 -66.5 -22.5t-34.5 -51.5q0 -8 1 -12l156 -533l197 504l45 146h100l43 -150l158 -500l184 535q3 9 3 17q0 33 -40 52t-78 21l4 29q66 -10 159 -10q92 0 159 10l-4 -29q-57 -4 -100 -36t-58 -75l-233 -677h-95 l-219 598l-231 -598h-92l-232 663q-19 55 -73 83.5t-121 31.5z" />
<glyph unicode="x" horiz-adv-x="1081" d="M90 -4l4 29q26 0 61.5 9.5t53.5 20.5q48 27 108 95l195 223l-221 303q-11 16 -26 31t-25 23l-9 7q-29 17 -42 20t-58 5v29q95 -11 215 -11q128 0 203 11l-4 -29q-45 -1 -65 -13t-20 -27q0 -9 4 -20.5t8 -18.5l3 -7l139 -207l154 190q18 22 18 49q0 15 -5 25t-27 19.5 t-62 9.5l4 29q70 -7 153 -7q78 0 150 7l-4 -29q-54 0 -86 -14q-34 -16 -75 -64l-195 -242l213 -290q34 -50 82 -86q31 -23 54 -31.5t65 -9.5l-9 -29q-114 6 -236 6q-124 0 -194 -6v29q33 0 57 7.5t34 17t10 17.5t-4.5 16.5t-11.5 19t-11 18.5l-156 217l-153 -191 q-30 -37 -30 -67q0 -55 106 -55l-4 -29q-73 6 -178 6t-183 -6z" />
<glyph unicode="y" horiz-adv-x="1097" d="M61 -303q0 62 32.5 93.5t76.5 31.5q49 0 89 -24.5t40 -73.5q0 -31 -22 -59.5t-58 -43.5q27 -22 84 -22q34 0 100 59q77 72 156 307l-305 707q-20 49 -70 69q-40 15 -114 21v29q99 -8 211 -8q149 0 239 8l-4 -29q-46 0 -66 -11t-20 -40q0 -18 12 -56l201 -512l217 500 q15 36 15 59q0 18 -9 30.5t-20.5 18.5t-34.5 9t-37.5 3.5t-42.5 0.5l4 29q74 -9 181 -9q112 0 159 11l-4 -29q-78 0 -94 -16q-13 -11 -34 -50t-32 -69l-358 -856q-45 -107 -115 -168q-78 -66 -182 -66q-68 0 -131.5 45t-63.5 111z" />
<glyph unicode="z" horiz-adv-x="931" d="M133 82q55 63 194.5 229.5t253.5 303.5t115 139l-393 -6q-17 0 -31 -7.5t-23 -23.5t-15 -31t-10 -40.5t-6 -40t-4 -42.5t-3 -37h-43l10 273l699 4l8 -41q-72 -84 -176.5 -210t-232.5 -291t-142 -206l325 6q65 2 112.5 67.5t53.5 184.5h37l-22 -313h-701z" />
<glyph unicode="{" horiz-adv-x="565" d="M45 528v78h162v762h317v-45h-192v-1532h192v-53h-317v790h-162z" />
<glyph unicode="|" horiz-adv-x="618" d="M254 -307v1775h111v-1775h-111z" />
<glyph unicode="}" horiz-adv-x="565" d="M63 -209h193v1532h-193v45h318v-762h154v-78h-154v-790h-318v53z" />
<glyph unicode="&#xa1;" horiz-adv-x="851" d="M299 30q0 28 11.5 115t27.5 191.5t32.5 205t27.5 168.5l12 68h73l62 -741v-5q0 -57 -135 -57q-64 0 -87.5 14t-23.5 41zM328 1071q0 41 34.5 83t81.5 42q121 0 121 -125q0 -123 -114 -123q-55 0 -89 40.5t-34 82.5z" />
<glyph unicode="&#xa3;" d="M92 33q0 70 45.5 123t130.5 53q101 0 203 -133q21 32 21 78q0 45 -12.5 71.5t-41.5 51.5l-327 4v65l240 2q-42 38 -76 86h-164v66l128 2q-20 53 -20 108q0 81 33 144t86 99t113.5 54.5t123.5 18.5q141 0 229 -68t95 -192l-65 -11q-38 207 -246 207q-93 0 -146 -57 t-53 -164q0 -58 59 -135l375 6v-80l-314 1q51 -59 66 -83l248 2v-80l-216 3q1 -7 1 -21q0 -31 -4 -57.5t-8.5 -43t-16.5 -36.5t-17 -27t-22.5 -27.5t-21.5 -25.5q49 -39 93 -54.5t104 -15.5q91 0 150 50t59 143q0 8 -1 24.5t-1 20.5l63 16q0 -13 4.5 -35.5t4.5 -34.5 q0 -339 -244 -339q-120 0 -299 170q-43 -51 -93 -78q-53 -29 -102 -29q-43 0 -76.5 17.5t-51.5 44t-27 51.5t-9 45zM197 45q0 -45 26.5 -67.5t71.5 -22.5q89 0 133 57q-63 76 -92 99q-42 34 -70 34q-26 0 -47.5 -24t-21.5 -76z" />
<glyph unicode="&#xa4;" d="M78 14q2 0 5.5 0.5t14.5 1.5t21.5 2.5t25 4t27 5t25.5 6t22.5 7.5t15.5 8.5t7 9.5q9 61 14 347h-178v90h180q1 36 1 108h-181v90h181v35q0 252 -7 277q-3 16 -40 29t-72 19l-36 5v35q247 -7 411 -7q171 0 364 7l6 -289h-39q-7 34 -20.5 69t-37.5 76t-63 66.5t-86 25.5 h-190v-348h358v-90h-358v-108h358v-90h-358v-287q0 -42 16 -70.5t53 -28.5h178q52 3 116 100t73 183h45l-47 -321h-805v32z" />
<glyph unicode="&#xa6;" horiz-adv-x="618" d="M254 -307v727h111v-727h-111zM254 770v698h111v-698h-111z" />
<glyph unicode="&#xa7;" horiz-adv-x="745" d="M78 -176l47 -2q5 -44 21 -87t43.5 -83t73.5 -65t102 -25q93 0 140.5 39.5t47.5 111.5q0 32 -22.5 59.5t-64 48.5t-78.5 35t-89 29q-90 26 -148.5 90.5t-58.5 155.5q0 97 53.5 161.5t147.5 86.5q-87 26 -144 90.5t-57 153.5q0 121 81.5 189.5t217.5 68.5q56 0 102 -19.5 t64 -39.5l18 -19l7 59h59l-16 -252h-45q-10 99 -35 145q-49 93 -174 93q-140 0 -140 -139q0 -35 11 -60t37 -41.5t45.5 -24.5t61 -20t58.5 -18q128 -45 192 -99.5t64 -148.5q0 -213 -194 -266q96 -40 145 -92t49 -134q0 -284 -346 -284q-41 0 -94 20.5t-86 40.5l-33 21 l-22 -58h-33q-3 169 -8 279zM231 217q0 -24 4.5 -42.5t17.5 -33t22.5 -24t32.5 -19t33.5 -13.5t40 -12.5t38.5 -11.5q133 17 133 144q0 50 -51 85.5t-137 65.5q-63 -1 -98.5 -40t-35.5 -99z" />
<glyph unicode="&#xa8;" horiz-adv-x="843" d="M198 1049q0 30 18 49.5t43 19.5q27 0 45.5 -19t18.5 -48q0 -30 -18.5 -50t-43.5 -20q-26 0 -44.5 19.5t-18.5 48.5zM502 1049q0 30 18 49.5t43 19.5q27 0 45.5 -19t18.5 -48q0 -30 -18.5 -50t-43.5 -20q-26 0 -44.5 19.5t-18.5 48.5z" />
<glyph unicode="&#xa9;" d="M29 416q0 97 38 186t102 153t153 102t186 38t186 -38t153 -102t102 -153t38 -186t-38 -186t-102 -153t-153 -102t-186 -38t-186 38t-153 102t-102 153t-38 186zM78 416q0 -178 126 -304t304 -126t304 126t126 304t-126 304t-304 126t-304 -126t-126 -304zM199 391 q0 72 22.5 129.5t57.5 92.5t80.5 58.5t87.5 32.5t83 9q56 0 106.5 -17.5t65.5 -36.5q12 7 18 16.5t7 15.5t4 28h31l-2 -199h-31q-21 150 -211 150q-192 0 -192 -273q0 -60 8.5 -105t29.5 -85.5t62 -62t102 -21.5q48 0 80.5 9.5t55 32.5t35 44.5t30.5 62.5q29 -10 39 -16 q-76 -180 -240 -180q-146 0 -237.5 82t-91.5 233z" />
<glyph unicode="&#xab;" horiz-adv-x="1007" d="M117 366v52l536 342v-34l-357 -324v-28l339 -289v-44zM466 366v52l449 342v-34l-302 -324v-28l284 -289v-44z" />
<glyph unicode="&#xad;" horiz-adv-x="944" d="M147 532l17 134h670l-11 -138z" />
<glyph unicode="&#xae;" d="M29 416q0 97 38 186t102 153t153 102t186 38t186 -38t153 -102t102 -153t38 -186t-38 -186t-102 -153t-153 -102t-186 -38t-186 38t-153 102t-102 153t-38 186zM78 416q0 -178 126 -304t304 -126t304 126t126 304t-126 304t-304 126t-304 -126t-126 -304zM268 111v34 q74 10 78 33q0 1 1 4.5t2 11t1 17.5v448q-2 7 -19 15t-33 12l-17 4v27q58 0 154.5 -2t119.5 -2q60 0 112 -42t52 -110q-2 -47 -49 -90.5t-111 -46.5q25 -2 44.5 -11t31.5 -20t22 -31t15.5 -35t14 -40.5l13.5 -40.5q23 -62 34.5 -77t39.5 -22v-36h-143q-11 111 -21 147 q-35 143 -102 145l-64 3l2 -199q0 -13 1.5 -20.5t9 -14.5t22.5 -12l43 -15l-2 -34q-46 3 -126 3t-126 -3zM446 432l64 -2q58 0 84.5 42.5t26.5 88.5q0 51 -18 87t-52 36q-8 0 -25.5 2.5t-27.5 2.5t-28 -0.5t-24 -0.5v-256z" />
<glyph unicode="&#xb4;" horiz-adv-x="843" d="M236 950l337 289l64 -94l-379 -232z" />
<glyph unicode="&#xbb;" horiz-adv-x="1007" d="M117 726v34l449 -342v-52l-431 -325v44l284 289v28zM379 726v34l536 -342v-52l-517 -325v44l339 289v28z" />
<glyph unicode="&#xbf;" d="M125 283q0 83 53 148t135 106q2 1 40 16.5t66.5 31t64.5 40t56.5 56.5t20.5 67q0 63 -27.5 98t-80.5 35q-81 0 -134.5 -49.5t-78.5 -122.5l-45 28q70 185 262 185q67 0 140 -56t73 -125q0 -68 -28 -110.5t-81 -75.5q-8 -5 -37 -22.5t-41.5 -26t-39 -27.5t-40 -32.5 t-33 -35.5t-29 -42.5t-17 -47.5t-7.5 -55q0 -122 62.5 -194t163.5 -72q68 0 129 66t71 127q-55 4 -92 28.5t-37 77.5t34 88t95 35q66 0 100 -51.5t34 -108.5q0 -29 -16.5 -68t-48.5 -80t-73 -76.5t-97 -58t-114 -22.5q-46 0 -96 9t-106 32.5t-100 59t-72.5 94t-28.5 131.5z M344 1180q0 54 33.5 85t87.5 31q53 0 84 -30.5t31 -85.5q0 -54 -33.5 -84.5t-87.5 -30.5q-53 0 -84 30t-31 85z" />
<glyph unicode="&#xc0;" horiz-adv-x="1468" d="M0 -10v41h3q40 0 83.5 16t69.5 47q24 29 156.5 321.5t253.5 570.5l120 278h66l438 -1039q26 -61 51 -98.5t38.5 -47.5t33.5 -20q18 -9 38 -12t38 -3t24 -1l-4 -49q-146 6 -300 6q-164 0 -247 -6l2 39q15 -2 35 -2q73 0 100 32q14 17 14 45q0 19 -5.5 41t-11.5 35l-5 13 l-133 356h-401l-191 -447q-5 -9 -5 -19q0 -30 44 -46t86 -16l2 -33zM479 600h363l-178 432zM542 1584l57 68l313 -287l-45 -31z" />
<glyph unicode="&#xc1;" horiz-adv-x="1468" d="M0 -10v41h3q40 0 83.5 16t69.5 47q24 29 156.5 321.5t253.5 570.5l120 278h66l438 -1039q26 -61 51 -98.5t38.5 -47.5t33.5 -20q18 -9 38 -12t38 -3t24 -1l-4 -49q-146 6 -300 6q-164 0 -247 -6l2 39q15 -2 35 -2q73 0 100 32q14 17 14 45q0 19 -5.5 41t-11.5 35l-5 13 l-133 356h-401l-191 -447q-5 -9 -5 -19q0 -30 44 -46t86 -16l2 -33zM479 600h363l-178 432zM539 1367l338 289l63 -94l-379 -232z" />
<glyph unicode="&#xc2;" horiz-adv-x="1468" d="M0 -10v41h3q40 0 83.5 16t69.5 47q24 29 156.5 321.5t253.5 570.5l120 278h66l438 -1039q26 -61 51 -98.5t38.5 -47.5t33.5 -20q18 -9 38 -12t38 -3t24 -1l-4 -49q-146 6 -300 6q-164 0 -247 -6l2 39q15 -2 35 -2q73 0 100 32q14 17 14 45q0 19 -5.5 41t-11.5 35l-5 13 l-133 356h-401l-191 -447q-5 -9 -5 -19q0 -30 44 -46t86 -16l2 -33zM467 1346l276 303l246 -297l-26 -23l-226 207l-241 -207zM479 600h363l-178 432z" />
<glyph unicode="&#xc3;" horiz-adv-x="1468" d="M0 -10v41h3q40 0 83.5 16t69.5 47q24 29 156.5 321.5t253.5 570.5l120 278h66l438 -1039q26 -61 51 -98.5t38.5 -47.5t33.5 -20q18 -9 38 -12t38 -3t24 -1l-4 -49q-146 6 -300 6q-164 0 -247 -6l2 39q15 -2 35 -2q73 0 100 32q14 17 14 45q0 19 -5.5 41t-11.5 35l-5 13 l-133 356h-401l-191 -447q-5 -9 -5 -19q0 -30 44 -46t86 -16l2 -33zM479 600h363l-178 432zM530 1349q0 55 39.5 121t95.5 66q29 0 58 -19t49.5 -42t51 -42t62.5 -19q33 0 54.5 10t31 29t12.5 37t3 43h31q0 -27 -5 -57t-18 -69t-44.5 -64t-76.5 -25q-31 0 -57.5 13.5 t-45.5 33t-36.5 39t-37.5 33t-40 13.5q-39 0 -70.5 -34t-31.5 -68z" />
<glyph unicode="&#xc4;" horiz-adv-x="1468" d="M0 -10v41h3q40 0 83.5 16t69.5 47q24 29 156.5 321.5t253.5 570.5l120 278h66l438 -1039q26 -61 51 -98.5t38.5 -47.5t33.5 -20q18 -9 38 -12t38 -3t24 -1l-4 -49q-146 6 -300 6q-164 0 -247 -6l2 39q15 -2 35 -2q73 0 100 32q14 17 14 45q0 19 -5.5 41t-11.5 35l-5 13 l-133 356h-401l-191 -447q-5 -9 -5 -19q0 -30 44 -46t86 -16l2 -33zM479 600h363l-178 432zM519 1409q0 30 18.5 50t43.5 20q26 0 44.5 -19.5t18.5 -48.5q0 -30 -18 -50t-43 -20q-27 0 -45.5 19.5t-18.5 48.5zM823 1409q0 30 18.5 50t43.5 20q26 0 44.5 -19.5t18.5 -48.5 q0 -30 -18 -50t-43 -20q-27 0 -45.5 19.5t-18.5 48.5z" />
<glyph unicode="&#xc5;" horiz-adv-x="1468" d="M0 -10v41h3q40 0 83.5 16t69.5 47q24 29 156.5 321.5t253.5 570.5l120 278h66l438 -1039q26 -61 51 -98.5t38.5 -47.5t33.5 -20q18 -9 38 -12t38 -3t24 -1l-4 -49q-146 6 -300 6q-164 0 -247 -6l2 39q15 -2 35 -2q73 0 100 32q14 17 14 45q0 19 -5.5 41t-11.5 35l-5 13 l-133 356h-401l-191 -447q-5 -9 -5 -19q0 -30 44 -46t86 -16l2 -33zM479 600h363l-178 432zM564 1592q0 72 47.5 119t119.5 47t119.5 -46t47.5 -118q0 -73 -47.5 -122.5t-119.5 -49.5t-119.5 49t-47.5 121zM630 1589q0 -55 29 -85t72 -30q47 0 72.5 29.5t25.5 85.5 q0 55 -26 86t-74 31q-45 0 -72 -31t-27 -86z" />
<glyph unicode="&#xc6;" horiz-adv-x="1822" d="M76 -10v41h1q15 0 34.5 2t58 17.5t61.5 43.5q42 50 676 1157q147 -3 287 -3q229 0 463 9l6 -288h-39q-7 34 -20.5 69t-37.5 76t-63 66.5t-86 25.5h-293q0 -329 4 -565h271q91 0 100 158h47v-359h-39q-5 74 -34 115t-80 41h-265l-2 -543q207 -12 252 -12q55 0 119 4 q46 21 87.5 101t49.5 157h45l-18 -303q-147 7 -347 7q-173 0 -560 -7v33q17 1 43 3.5t71.5 17t49.5 36.5q8 44 16 504h-338l-261 -447q0 -1 -12.5 -22.5t-12.5 -24.5q0 -58 210 -65l-2 -37zM618 641h316l3 551q-48 -85 -117.5 -193.5t-201.5 -357.5z" />
<glyph unicode="&#xc7;" horiz-adv-x="1392" d="M111 612q0 150 46.5 269.5t117.5 192.5t164.5 121.5t180.5 67.5t171 19q117 0 221 -36t137 -75q33 21 42.5 41.5t16.5 70.5q0 2 0.5 4t1 4.5t0.5 4.5h64l-6 -413h-39q-26 162 -138.5 253t-316.5 91q-100 0 -176.5 -44.5t-124 -125.5t-72 -189t-26.5 -241q0 -611 428 -611 q79 0 143.5 19.5t108.5 49.5t82.5 79.5t62 94.5t51.5 110q27 -23 47 -37q-25 -60 -53 -109.5t-71.5 -101t-95 -86.5t-123.5 -57.5t-156 -22.5q-147 0 -272 42.5t-218 123.5t-145.5 207t-52.5 284zM111 612q0 150 46.5 269.5t117.5 192.5t164.5 121.5t180.5 67.5t171 19 q117 0 221 -36t137 -75q33 21 42.5 41.5t16.5 70.5q0 2 0.5 4t1 4.5t0.5 4.5h64l-6 -413h-39q-26 162 -138.5 253t-316.5 91q-100 0 -176.5 -44.5t-124 -125.5t-72 -189t-26.5 -241q0 -611 428 -611q79 0 143.5 19.5t108.5 49.5t82.5 79.5t62 94.5t51.5 110q27 -23 47 -37 q-25 -60 -53 -109.5t-71.5 -101t-95 -86.5t-123.5 -57.5t-156 -22.5q-147 0 -272 42.5t-218 123.5t-145.5 207t-52.5 284zM678 -385l4 43q94 0 139.5 22.5t45.5 84.5q0 61 -171 61l74 172l45 -2l-39 -102q57 0 93.5 -7t55 -22t25 -32.5t6.5 -43.5q0 -65 -79.5 -119.5 t-198.5 -54.5z" />
<glyph unicode="&#xc8;" horiz-adv-x="1167" d="M98 0v33q51 -2 56 -2q98 0 108 47q7 46 12.5 291t5.5 481q0 290 -8 319q-3 16 -39.5 29.5t-72.5 19.5l-35 5v34q212 -6 472 -6t425 6l6 -288h-39q-7 34 -20.5 69t-37.5 76t-63 66.5t-86 25.5h-313v-544h295q92 0 100 157h47v-358h-39q-5 74 -33.5 114.5t-80.5 40.5h-289 v-479q0 -42 16.5 -69t53.5 -27h301q51 3 100.5 88.5t58.5 173.5h45l-18 -303h-928zM387 1562l57 67l314 -287l-45 -30z" />
<glyph unicode="&#xc9;" horiz-adv-x="1167" d="M98 0v33q51 -2 56 -2q98 0 108 47q7 46 12.5 291t5.5 481q0 290 -8 319q-3 16 -39.5 29.5t-72.5 19.5l-35 5v34q212 -6 472 -6t425 6l6 -288h-39q-7 34 -20.5 69t-37.5 76t-63 66.5t-86 25.5h-313v-544h295q92 0 100 157h47v-358h-39q-5 74 -33.5 114.5t-80.5 40.5h-289 v-479q0 -42 16.5 -69t53.5 -27h301q51 3 100.5 88.5t58.5 173.5h45l-18 -303h-928zM372 1334l338 289l63 -94l-379 -232z" />
<glyph unicode="&#xca;" horiz-adv-x="1167" d="M98 0v33q51 -2 56 -2q98 0 108 47q7 46 12.5 291t5.5 481q0 290 -8 319q-3 16 -39.5 29.5t-72.5 19.5l-35 5v34q212 -6 472 -6t425 6l6 -288h-39q-7 34 -20.5 69t-37.5 76t-63 66.5t-86 25.5h-313v-544h295q92 0 100 157h47v-358h-39q-5 74 -33.5 114.5t-80.5 40.5h-289 v-479q0 -42 16.5 -69t53.5 -27h301q51 3 100.5 88.5t58.5 173.5h45l-18 -303h-928zM364 1310l276 303l246 -297l-27 -23l-225 207l-242 -207z" />
<glyph unicode="&#xcb;" horiz-adv-x="1167" d="M98 0v33q51 -2 56 -2q98 0 108 47q7 46 12.5 291t5.5 481q0 290 -8 319q-3 16 -39.5 29.5t-72.5 19.5l-35 5v34q212 -6 472 -6t425 6l6 -288h-39q-7 34 -20.5 69t-37.5 76t-63 66.5t-86 25.5h-313v-544h295q92 0 100 157h47v-358h-39q-5 74 -33.5 114.5t-80.5 40.5h-289 v-479q0 -42 16.5 -69t53.5 -27h301q51 3 100.5 88.5t58.5 173.5h45l-18 -303h-928zM411 1407q0 30 18 50t43 20q27 0 45.5 -19.5t18.5 -48.5q0 -30 -18.5 -50t-43.5 -20q-26 0 -44.5 19.5t-18.5 48.5zM715 1407q0 30 18 50t43 20q27 0 45.5 -19.5t18.5 -48.5 q0 -30 -18.5 -50t-43.5 -20q-26 0 -44.5 19.5t-18.5 48.5z" />
<glyph unicode="&#xcc;" horiz-adv-x="753" d="M119 -6v33h8q149 0 156 45q10 59 10 1097q0 16 -37 29.5t-74 19.5l-37 5v28q88 -8 241 -8t243 8v-39q-52 -4 -96 -16.5t-44 -30.5q0 -2 -1 -111t-2 -274t-1 -303q0 -271 4 -387q1 -32 48.5 -44.5t103.5 -12.5l2 -33q-84 2 -159 2q-203 0 -365 -8zM228 1545l58 68 l313 -287l-45 -31z" />
<glyph unicode="&#xcd;" horiz-adv-x="753" d="M119 -6v33h8q149 0 156 45q10 59 10 1097q0 16 -37 29.5t-74 19.5l-37 5v28q88 -8 241 -8t243 8v-39q-52 -4 -96 -16.5t-44 -30.5q0 -2 -1 -111t-2 -274t-1 -303q0 -271 4 -387q1 -32 48.5 -44.5t103.5 -12.5l2 -33q-84 2 -159 2q-203 0 -365 -8zM236 1329l337 289 l64 -94l-379 -232z" />
<glyph unicode="&#xce;" horiz-adv-x="753" d="M119 -6v33h8q149 0 156 45q10 59 10 1097q0 16 -37 29.5t-74 19.5l-37 5v28q88 -8 241 -8t243 8v-39q-52 -4 -96 -16.5t-44 -30.5q0 -2 -1 -111t-2 -274t-1 -303q0 -271 4 -387q1 -32 48.5 -44.5t103.5 -12.5l2 -33q-84 2 -159 2q-203 0 -365 -8zM128 1299l276 304 l246 -297l-26 -23l-226 207l-241 -207z" />
<glyph unicode="&#xcf;" horiz-adv-x="753" d="M119 -6v33h8q149 0 156 45q10 59 10 1097q0 16 -37 29.5t-74 19.5l-37 5v28q88 -8 241 -8t243 8v-39q-52 -4 -96 -16.5t-44 -30.5q0 -2 -1 -111t-2 -274t-1 -303q0 -271 4 -387q1 -32 48.5 -44.5t103.5 -12.5l2 -33q-84 2 -159 2q-203 0 -365 -8zM188 1402 q0 30 18.5 49.5t43.5 19.5q27 0 45 -19t18 -48q0 -30 -18 -50t-43 -20q-27 0 -45.5 19.5t-18.5 48.5zM493 1402q0 30 18 49.5t43 19.5q27 0 45 -19t18 -48q0 -30 -18 -50t-43 -20q-26 0 -44.5 19.5t-18.5 48.5z" />
<glyph unicode="&#xd0;" horiz-adv-x="1343" />
<glyph unicode="&#xd1;" horiz-adv-x="1374" d="M41 -6v33h10q164 0 174 45q10 650 10 699q0 164 -4 355q-3 16 -49 40t-90 40l-45 17v34l371 -2q84 -116 249 -333t289 -376l123 -159l2 760q-1 29 -50 45.5t-113 16.5q-19 0 -29 -1l-4 45q83 -11 207 -11q106 0 241 9v-43q-28 -2 -62 -6.5t-74.5 -19.5t-41.5 -35 q-4 -65 -4 -369l4 -801h-70q-749 1030 -784 1067q-2 -121 -2 -279q0 -135 5 -258t5 -308v-80q0 -82 72 -82q115 0 115 -4v-37q-105 7 -222 7q-130 0 -233 -9zM438 1341q0 55 39.5 121t95.5 66q29 0 58 -19t49.5 -42t51 -42t62.5 -19q33 0 54.5 10t30.5 29.5t12 36.5t3 43h32 q0 -20 -2.5 -43t-11.5 -55.5t-23.5 -57t-42.5 -42.5t-65 -18t-70 21t-52 45.5t-44.5 45.5t-50.5 21q-39 0 -70 -34t-31 -68z" />
<glyph unicode="&#xd2;" horiz-adv-x="1585" d="M98 608q0 118 25 217t66.5 169t100.5 125t123 89t138.5 56t142 30.5t137.5 8.5q50 0 104 -8t119 -29.5t125 -54t117 -86.5t98.5 -122.5t67 -165.5t25.5 -212q0 -124 -40.5 -231.5t-108 -183t-153.5 -129.5t-177.5 -80t-180.5 -26q-115 0 -223.5 27.5t-200 82t-160 129.5 t-107 176.5t-38.5 217.5zM336 623q0 -71 13.5 -147t49 -160t89 -149t142.5 -108t201 -43q188 0 307 172t119 437q0 315 -115 479t-327 164q-79 0 -144 -15.5t-129.5 -59t-108 -114t-70.5 -186.5t-27 -270zM669 1573l57 67l313 -286l-45 -31z" />
<glyph unicode="&#xd3;" horiz-adv-x="1585" d="M98 608q0 118 25 217t66.5 169t100.5 125t123 89t138.5 56t142 30.5t137.5 8.5q50 0 104 -8t119 -29.5t125 -54t117 -86.5t98.5 -122.5t67 -165.5t25.5 -212q0 -124 -40.5 -231.5t-108 -183t-153.5 -129.5t-177.5 -80t-180.5 -26q-115 0 -223.5 27.5t-200 82t-160 129.5 t-107 176.5t-38.5 217.5zM336 623q0 -71 13.5 -147t49 -160t89 -149t142.5 -108t201 -43q188 0 307 172t119 437q0 315 -115 479t-327 164q-79 0 -144 -15.5t-129.5 -59t-108 -114t-70.5 -186.5t-27 -270zM625 1362l338 289l63 -95l-379 -231z" />
<glyph unicode="&#xd4;" horiz-adv-x="1585" d="M98 608q0 118 25 217t66.5 169t100.5 125t123 89t138.5 56t142 30.5t137.5 8.5q50 0 104 -8t119 -29.5t125 -54t117 -86.5t98.5 -122.5t67 -165.5t25.5 -212q0 -124 -40.5 -231.5t-108 -183t-153.5 -129.5t-177.5 -80t-180.5 -26q-115 0 -223.5 27.5t-200 82t-160 129.5 t-107 176.5t-38.5 217.5zM336 623q0 -71 13.5 -147t49 -160t89 -149t142.5 -108t201 -43q188 0 307 172t119 437q0 315 -115 479t-327 164q-79 0 -144 -15.5t-129.5 -59t-108 -114t-70.5 -186.5t-27 -270zM548 1325l276 303l246 -297l-27 -22l-225 207l-241 -207z" />
<glyph unicode="&#xd5;" horiz-adv-x="1585" d="M98 608q0 118 25 217t66.5 169t100.5 125t123 89t138.5 56t142 30.5t137.5 8.5q50 0 104 -8t119 -29.5t125 -54t117 -86.5t98.5 -122.5t67 -165.5t25.5 -212q0 -124 -40.5 -231.5t-108 -183t-153.5 -129.5t-177.5 -80t-180.5 -26q-115 0 -223.5 27.5t-200 82t-160 129.5 t-107 176.5t-38.5 217.5zM336 623q0 -71 13.5 -147t49 -160t89 -149t142.5 -108t201 -43q188 0 307 172t119 437q0 315 -115 479t-327 164q-79 0 -144 -15.5t-129.5 -59t-108 -114t-70.5 -186.5t-27 -270zM651 1337q0 55 39.5 121t95.5 66q29 0 58 -19t49.5 -42t51 -42 t62.5 -19q33 0 54.5 10t30.5 29.5t12 36.5t3 43h32q0 -20 -2.5 -43t-11.5 -55.5t-23.5 -57t-42.5 -42.5t-65 -18t-70 21t-52.5 45.5t-44.5 45.5t-50 21q-39 0 -70 -34t-31 -68z" />
<glyph unicode="&#xd6;" horiz-adv-x="1585" d="M98 608q0 118 25 217t66.5 169t100.5 125t123 89t138.5 56t142 30.5t137.5 8.5q50 0 104 -8t119 -29.5t125 -54t117 -86.5t98.5 -122.5t67 -165.5t25.5 -212q0 -124 -40.5 -231.5t-108 -183t-153.5 -129.5t-177.5 -80t-180.5 -26q-115 0 -223.5 27.5t-200 82t-160 129.5 t-107 176.5t-38.5 217.5zM336 623q0 -71 13.5 -147t49 -160t89 -149t142.5 -108t201 -43q188 0 307 172t119 437q0 315 -115 479t-327 164q-79 0 -144 -15.5t-129.5 -59t-108 -114t-70.5 -186.5t-27 -270zM606 1399q0 30 18.5 49.5t43.5 19.5q27 0 45 -19t18 -48 q0 -30 -18 -50t-43 -20q-27 0 -45.5 19.5t-18.5 48.5zM910 1399q0 30 18.5 49.5t43.5 19.5q27 0 45 -19t18 -48q0 -30 -18 -50t-43 -20q-27 0 -45.5 19.5t-18.5 48.5z" />
<glyph unicode="&#xd7;" d="M174 213l260 260l-260 260l88 86l258 -260l260 260l88 -86l-260 -260l260 -260l-88 -86l-260 260l-258 -260z" />
<glyph unicode="&#xd8;" horiz-adv-x="1585" d="M98 608q0 118 25 217t66.5 169t100.5 125t123 89t138.5 56t142 30.5t137.5 8.5q50 0 104 -8t119 -29.5t125 -54t117 -86.5t98.5 -122.5t67 -165.5t25.5 -212q0 -124 -40.5 -231.5t-108 -183t-153.5 -129.5t-177.5 -80t-180.5 -26q-115 0 -223.5 27.5t-200 82t-160 129.5 t-107 176.5t-38.5 217.5zM336 623q0 -71 13.5 -147t49 -160t89 -149t142.5 -108t201 -43q188 0 307 172t119 437q0 315 -115 479t-327 164q-79 0 -144 -15.5t-129.5 -59t-108 -114t-70.5 -186.5t-27 -270z" />
<glyph unicode="&#xd9;" horiz-adv-x="1525" d="M104 1223v28q88 -8 263 -8q178 0 268 8v-39q-118 -9 -156 -47q-2 -98 -2 -319l2 -410q0 -108 21.5 -187t53.5 -122t80.5 -68t91 -32t97.5 -7q61 0 109 11t92.5 40.5t73.5 77.5t46 125t17 180q0 23 0.5 56t0.5 88q0 255 -9 571q-3 16 -45 29.5t-82 19.5l-41 5v28 q88 -8 220 -8q128 0 218 8v-39q-96 -7 -176 -47q-6 -115 -6 -306l6 -382q0 -240 -115.5 -374.5t-343.5 -141.5q-70 0 -138.5 13t-140 47.5t-125 87t-88 140t-34.5 198.5q0 5 3.5 63.5t7 169.5t3.5 243q0 129 -4 246q-3 16 -45 29.5t-83 19.5zM577 1552l57 68l313 -287 l-45 -30z" />
<glyph unicode="&#xda;" horiz-adv-x="1525" d="M104 1223v28q88 -8 263 -8q178 0 268 8v-39q-118 -9 -156 -47q-2 -98 -2 -319l2 -410q0 -108 21.5 -187t53.5 -122t80.5 -68t91 -32t97.5 -7q61 0 109 11t92.5 40.5t73.5 77.5t46 125t17 180q0 23 0.5 56t0.5 88q0 255 -9 571q-3 16 -45 29.5t-82 19.5l-41 5v28 q88 -8 220 -8q128 0 218 8v-39q-96 -7 -176 -47q-6 -115 -6 -306l6 -382q0 -240 -115.5 -374.5t-343.5 -141.5q-70 0 -138.5 13t-140 47.5t-125 87t-88 140t-34.5 198.5q0 5 3.5 63.5t7 169.5t3.5 243q0 129 -4 246q-3 16 -45 29.5t-83 19.5zM691 1334l338 289l64 -94 l-379 -232z" />
<glyph unicode="&#xdb;" horiz-adv-x="1525" d="M104 1223v28q88 -8 263 -8q178 0 268 8v-39q-118 -9 -156 -47q-2 -98 -2 -319l2 -410q0 -108 21.5 -187t53.5 -122t80.5 -68t91 -32t97.5 -7q61 0 109 11t92.5 40.5t73.5 77.5t46 125t17 180q0 23 0.5 56t0.5 88q0 255 -9 571q-3 16 -45 29.5t-82 19.5l-41 5v28 q88 -8 220 -8q128 0 218 8v-39q-96 -7 -176 -47q-6 -115 -6 -306l6 -382q0 -240 -115.5 -374.5t-343.5 -141.5q-70 0 -138.5 13t-140 47.5t-125 87t-88 140t-34.5 198.5q0 5 3.5 63.5t7 169.5t3.5 243q0 129 -4 246q-3 16 -45 29.5t-83 19.5zM548 1326l276 303l246 -297 l-27 -22l-225 207l-241 -207z" />
<glyph unicode="&#xdc;" horiz-adv-x="1525" d="M104 1223v28q88 -8 263 -8q178 0 268 8v-39q-118 -9 -156 -47q-2 -98 -2 -319l2 -410q0 -108 21.5 -187t53.5 -122t80.5 -68t91 -32t97.5 -7q61 0 109 11t92.5 40.5t73.5 77.5t46 125t17 180q0 23 0.5 56t0.5 88q0 255 -9 571q-3 16 -45 29.5t-82 19.5l-41 5v28 q88 -8 220 -8q128 0 218 8v-39q-96 -7 -176 -47q-6 -115 -6 -306l6 -382q0 -240 -115.5 -374.5t-343.5 -141.5q-70 0 -138.5 13t-140 47.5t-125 87t-88 140t-34.5 198.5q0 5 3.5 63.5t7 169.5t3.5 243q0 129 -4 246q-3 16 -45 29.5t-83 19.5zM606 1399q0 30 18.5 49.5 t43.5 19.5q27 0 45 -19t18 -48q0 -30 -18 -50t-43 -20q-27 0 -45.5 19.5t-18.5 48.5zM910 1399q0 30 18.5 49.5t43.5 19.5q27 0 45 -19t18 -48q0 -30 -18 -50t-43 -20q-27 0 -45.5 19.5t-18.5 48.5z" />
<glyph unicode="&#xdd;" horiz-adv-x="1290" d="M27 1223v28q88 -8 277 -8q194 0 284 8v-39q-30 -3 -75.5 -12.5t-51.5 -21.5q-7 -15 -12 -33t-6 -29l-1 -10q132 -261 279 -504q290 520 290 546q0 29 -44 42l-121 33v28q88 -8 210 -8q118 0 208 8v-39q-85 -5 -134 -34q-14 -8 -33 -27t-31 -34l-13 -15q-21 -36 -83 -143 t-83.5 -145t-59 -107.5t-65.5 -128.5q0 -76 8 -508q0 -50 164 -50v-38h-545v32h22q148 0 150 45q4 231 10 435q-61 143 -154 307.5t-188 296.5q-46 64 -90 86q-54 26 -112 39zM568 1355l338 289l64 -95l-379 -231z" />
<glyph unicode="&#xe0;" horiz-adv-x="870" d="M102 215q0 47 18.5 84.5t47.5 61.5t71 41.5t81 26.5t86.5 14.5t79 7t67 2t41.5 0.5q6 67 6 147q0 191 -174 191q-59 0 -94.5 -26.5t-44.5 -62.5q57 0 57 -88q0 -37 -20.5 -61t-42.5 -31.5t-43 -7.5q-38 0 -68.5 35t-30.5 78q0 72 94 143q77 57 211 57q81 0 153 -32 t120.5 -99.5t48.5 -156.5q0 -65 -4 -184.5t-4 -170.5q0 -27 1.5 -46.5t7 -41.5t19 -33.5t33.5 -11.5q37 0 55 26.5t31 88.5l31 -19q-12 -76 -61.5 -118.5t-131.5 -42.5q-68 0 -102 45t-39 106q-3 -3 -8 -9q-25 -28 -43 -45.5t-52 -44.5t-73 -41t-80 -15q-46 0 -87.5 12.5 t-78 38.5t-57.5 73t-21 109zM240 1174l57 67l313 -287l-45 -30zM274 238q0 -87 42.5 -126.5t109.5 -39.5q57 0 100 35t68 81v236l-60 -6t-57 -6t-49 -6.5t-45.5 -10t-36 -15t-32 -21.5t-21 -29.5t-15.5 -40t-4 -51.5z" />
<glyph unicode="&#xe1;" horiz-adv-x="870" d="M102 215q0 47 18.5 84.5t47.5 61.5t71 41.5t81 26.5t86.5 14.5t79 7t67 2t41.5 0.5q6 67 6 147q0 191 -174 191q-59 0 -94.5 -26.5t-44.5 -62.5q57 0 57 -88q0 -37 -20.5 -61t-42.5 -31.5t-43 -7.5q-38 0 -68.5 35t-30.5 78q0 72 94 143q77 57 211 57q81 0 153 -32 t120.5 -99.5t48.5 -156.5q0 -65 -4 -184.5t-4 -170.5q0 -27 1.5 -46.5t7 -41.5t19 -33.5t33.5 -11.5q37 0 55 26.5t31 88.5l31 -19q-12 -76 -61.5 -118.5t-131.5 -42.5q-68 0 -102 45t-39 106q-3 -3 -8 -9q-25 -28 -43 -45.5t-52 -44.5t-73 -41t-80 -15q-46 0 -87.5 12.5 t-78 38.5t-57.5 73t-21 109zM272 950l338 289l64 -94l-379 -232zM274 238q0 -87 42.5 -126.5t109.5 -39.5q57 0 100 35t68 81v236l-60 -6t-57 -6t-49 -6.5t-45.5 -10t-36 -15t-32 -21.5t-21 -29.5t-15.5 -40t-4 -51.5z" />
<glyph unicode="&#xe2;" horiz-adv-x="870" d="M102 215q0 47 18.5 84.5t47.5 61.5t71 41.5t81 26.5t86.5 14.5t79 7t67 2t41.5 0.5q6 67 6 147q0 191 -174 191q-59 0 -94.5 -26.5t-44.5 -62.5q57 0 57 -88q0 -37 -20.5 -61t-42.5 -31.5t-43 -7.5q-38 0 -68.5 35t-30.5 78q0 72 94 143q77 57 211 57q81 0 153 -32 t120.5 -99.5t48.5 -156.5q0 -65 -4 -184.5t-4 -170.5q0 -27 1.5 -46.5t7 -41.5t19 -33.5t33.5 -11.5q37 0 55 26.5t31 88.5l31 -19q-12 -76 -61.5 -118.5t-131.5 -42.5q-68 0 -102 45t-39 106q-3 -3 -8 -9q-25 -28 -43 -45.5t-52 -44.5t-73 -41t-80 -15q-46 0 -87.5 12.5 t-78 38.5t-57.5 73t-21 109zM180 905l277 303l245 -297l-26 -22l-225 207l-242 -207zM274 238q0 -87 42.5 -126.5t109.5 -39.5q57 0 100 35t68 81v236l-60 -6t-57 -6t-49 -6.5t-45.5 -10t-36 -15t-32 -21.5t-21 -29.5t-15.5 -40t-4 -51.5z" />
<glyph unicode="&#xe3;" horiz-adv-x="870" d="M102 215q0 47 18.5 84.5t47.5 61.5t71 41.5t81 26.5t86.5 14.5t79 7t67 2t41.5 0.5q6 67 6 147q0 191 -174 191q-59 0 -94.5 -26.5t-44.5 -62.5q57 0 57 -88q0 -37 -20.5 -61t-42.5 -31.5t-43 -7.5q-38 0 -68.5 35t-30.5 78q0 72 94 143q77 57 211 57q81 0 153 -32 t120.5 -99.5t48.5 -156.5q0 -65 -4 -184.5t-4 -170.5q0 -27 1.5 -46.5t7 -41.5t19 -33.5t33.5 -11.5q37 0 55 26.5t31 88.5l31 -19q-12 -76 -61.5 -118.5t-131.5 -42.5q-68 0 -102 45t-39 106q-3 -3 -8 -9q-25 -28 -43 -45.5t-52 -44.5t-73 -41t-80 -15q-46 0 -87.5 12.5 t-78 38.5t-57.5 73t-21 109zM256 925q0 55 39.5 121t95.5 66q29 0 58 -19t49 -42t50.5 -42t62.5 -19q33 0 54.5 10t31 29t12.5 37t3 43h31q0 -27 -5 -57t-18 -69t-44.5 -64t-76.5 -25q-31 0 -57.5 13.5t-45.5 33t-36.5 39t-37.5 33t-40 13.5q-39 0 -70 -34t-31 -68zM274 238 q0 -87 42.5 -126.5t109.5 -39.5q57 0 100 35t68 81v236l-60 -6t-57 -6t-49 -6.5t-45.5 -10t-36 -15t-32 -21.5t-21 -29.5t-15.5 -40t-4 -51.5z" />
<glyph unicode="&#xe4;" horiz-adv-x="870" d="M102 215q0 47 18.5 84.5t47.5 61.5t71 41.5t81 26.5t86.5 14.5t79 7t67 2t41.5 0.5q6 67 6 147q0 191 -174 191q-59 0 -94.5 -26.5t-44.5 -62.5q57 0 57 -88q0 -37 -20.5 -61t-42.5 -31.5t-43 -7.5q-38 0 -68.5 35t-30.5 78q0 72 94 143q77 57 211 57q81 0 153 -32 t120.5 -99.5t48.5 -156.5q0 -65 -4 -184.5t-4 -170.5q0 -27 1.5 -46.5t7 -41.5t19 -33.5t33.5 -11.5q37 0 55 26.5t31 88.5l31 -19q-12 -76 -61.5 -118.5t-131.5 -42.5q-68 0 -102 45t-39 106q-3 -3 -8 -9q-25 -28 -43 -45.5t-52 -44.5t-73 -41t-80 -15q-46 0 -87.5 12.5 t-78 38.5t-57.5 73t-21 109zM271 1049q0 30 18.5 49.5t43.5 19.5q27 0 45 -19t18 -48q0 -30 -18 -50t-43 -20q-27 0 -45.5 19.5t-18.5 48.5zM274 238q0 -87 42.5 -126.5t109.5 -39.5q57 0 100 35t68 81v236l-60 -6t-57 -6t-49 -6.5t-45.5 -10t-36 -15t-32 -21.5t-21 -29.5 t-15.5 -40t-4 -51.5zM575 1049q0 30 18.5 49.5t43.5 19.5q27 0 45 -19t18 -48q0 -30 -18 -50t-43 -20q-27 0 -45.5 19.5t-18.5 48.5z" />
<glyph unicode="&#xe5;" horiz-adv-x="870" d="M102 215q0 47 18.5 84.5t47.5 61.5t71 41.5t81 26.5t86.5 14.5t79 7t67 2t41.5 0.5q6 67 6 147q0 191 -174 191q-59 0 -94.5 -26.5t-44.5 -62.5q57 0 57 -88q0 -37 -20.5 -61t-42.5 -31.5t-43 -7.5q-38 0 -68.5 35t-30.5 78q0 72 94 143q77 57 211 57q81 0 153 -32 t120.5 -99.5t48.5 -156.5q0 -65 -4 -184.5t-4 -170.5q0 -27 1.5 -46.5t7 -41.5t19 -33.5t33.5 -11.5q37 0 55 26.5t31 88.5l31 -19q-12 -76 -61.5 -118.5t-131.5 -42.5q-68 0 -102 45t-39 106q-3 -3 -8 -9q-25 -28 -43 -45.5t-52 -44.5t-73 -41t-80 -15q-46 0 -87.5 12.5 t-78 38.5t-57.5 73t-21 109zM274 238q0 -87 42.5 -126.5t109.5 -39.5q57 0 100 35t68 81v236l-60 -6t-57 -6t-49 -6.5t-45.5 -10t-36 -15t-32 -21.5t-21 -29.5t-15.5 -40t-4 -51.5zM296 1149q0 72 47.5 119.5t119.5 47.5t119.5 -46.5t47.5 -118.5t-47.5 -121.5t-119.5 -49.5 t-119.5 48.5t-47.5 120.5zM361 1147q0 -54 29.5 -84.5t72.5 -30.5q47 0 72.5 29.5t25.5 85.5q0 54 -26.5 85t-74.5 31q-45 0 -72 -30.5t-27 -85.5z" />
<glyph unicode="&#xe6;" horiz-adv-x="1392" d="M82 215q0 42 15 76.5t43 59t60 44t76 31.5t79.5 20.5t81 12.5t71 6t59.5 3t37 1q2 51 2 131q0 84 -53 137.5t-147 53.5q-59 0 -95 -27t-45 -62q58 0 58 -94q0 -37 -35 -65.5t-72 -28.5q-38 0 -68 35t-30 78q0 72 94 143q77 57 211 57q81 0 156.5 -31.5t119.5 -90.5 q113 108 283 108q49 0 96 -12t94 -38t82.5 -76.5t49.5 -119.5q8 -40 8 -79q0 -32 -2 -52l-535 -2v-54q0 -95 19.5 -175t66.5 -135.5t115 -55.5q63 0 115 23t84 60t50 66.5t29 59.5l56 -39q-10 -23 -25 -48t-44.5 -57t-66 -56t-90.5 -41t-116 -17q-120 0 -197.5 47.5 t-136.5 132.5q-30 -68 -123.5 -124.5t-185.5 -57.5q-62 0 -115.5 25.5t-91 84.5t-37.5 142zM254 238q0 -92 41 -138.5t111 -46.5q59 0 121.5 37.5t84.5 77.5q0 38 -4 110.5t-4 128.5v33q-159 -17 -209 -31q-112 -31 -135 -116q-6 -25 -6 -55zM778 465l355 2q2 21 2 64 q0 60 -11 100q-16 63 -64.5 104t-119.5 41q-73 0 -113.5 -83t-48.5 -228z" />
<glyph unicode="&#xe7;" horiz-adv-x="868" d="M102 420q0 87 28.5 159t72 117t100 76t109.5 44t102 13q72 0 143 -28.5t119.5 -83t48.5 -119.5q0 -77 -39 -117.5t-79 -40.5q-113 0 -113 109q0 43 26 73.5t58 30.5q38 0 67 -26q-41 168 -235 168q-97 0 -162 -118.5t-65 -295.5q0 -85 30.5 -163.5t87.5 -129.5t127 -51 q49 0 88.5 14.5t62.5 32.5t43.5 48.5t28 47.5t17.5 46q2 3 2.5 5.5t1.5 4.5l55 -39q-10 -24 -24.5 -49.5t-42.5 -59t-61.5 -58.5t-83.5 -43t-105 -18q-189 0 -298.5 115t-109.5 336zM385 -385l4 43q94 0 139.5 22.5t45.5 84.5q0 61 -171 61l74 172l45 -2l-39 -102 q75 0 116 -14t53 -35t12 -56q0 -65 -80 -119.5t-199 -54.5z" />
<glyph unicode="&#xe8;" horiz-adv-x="843" d="M102 381q0 96 26.5 172.5t68.5 124t97.5 79t109 44t108.5 12.5q49 0 96 -12t94 -38t82.5 -76.5t49.5 -119.5q8 -40 8 -79q0 -32 -2 -52l-541 -2v-45q0 -66 12.5 -130t36.5 -120t65 -90.5t93 -34.5q63 0 115 23t84 60t50 66.5t29 59.5l56 -39q-10 -23 -25 -48t-44.5 -57 t-66 -56t-90.5 -41t-116 -17q-81 0 -152 25.5t-126 75.5t-86.5 131t-31.5 184zM203 1174l57 67l313 -287l-45 -30zM301 465l361 2q2 21 2 64q0 60 -11 100q-16 63 -64.5 104t-119.5 41q-73 0 -116.5 -84t-51.5 -227z" />
<glyph unicode="&#xe9;" horiz-adv-x="843" d="M102 381q0 96 26.5 172.5t68.5 124t97.5 79t109 44t108.5 12.5q49 0 96 -12t94 -38t82.5 -76.5t49.5 -119.5q8 -40 8 -79q0 -32 -2 -52l-541 -2v-45q0 -66 12.5 -130t36.5 -120t65 -90.5t93 -34.5q63 0 115 23t84 60t50 66.5t29 59.5l56 -39q-10 -23 -25 -48t-44.5 -57 t-66 -56t-90.5 -41t-116 -17q-81 0 -152 25.5t-126 75.5t-86.5 131t-31.5 184zM295 950l338 289l63 -94l-379 -232zM301 465l361 2q2 21 2 64q0 60 -11 100q-16 63 -64.5 104t-119.5 41q-73 0 -116.5 -84t-51.5 -227z" />
<glyph unicode="&#xea;" horiz-adv-x="843" d="M102 381q0 96 26.5 172.5t68.5 124t97.5 79t109 44t108.5 12.5q49 0 96 -12t94 -38t82.5 -76.5t49.5 -119.5q8 -40 8 -79q0 -32 -2 -52l-541 -2v-45q0 -66 12.5 -130t36.5 -120t65 -90.5t93 -34.5q63 0 115 23t84 60t50 66.5t29 59.5l56 -39q-10 -23 -25 -48t-44.5 -57 t-66 -56t-90.5 -41t-116 -17q-81 0 -152 25.5t-126 75.5t-86.5 131t-31.5 184zM193 905l276 303l246 -297l-27 -22l-225 207l-242 -207zM301 465l361 2q2 21 2 64q0 60 -11 100q-16 63 -64.5 104t-119.5 41q-73 0 -116.5 -84t-51.5 -227z" />
<glyph unicode="&#xeb;" horiz-adv-x="843" d="M102 381q0 96 26.5 172.5t68.5 124t97.5 79t109 44t108.5 12.5q49 0 96 -12t94 -38t82.5 -76.5t49.5 -119.5q8 -40 8 -79q0 -32 -2 -52l-541 -2v-45q0 -66 12.5 -130t36.5 -120t65 -90.5t93 -34.5q63 0 115 23t84 60t50 66.5t29 59.5l56 -39q-10 -23 -25 -48t-44.5 -57 t-66 -56t-90.5 -41t-116 -17q-81 0 -152 25.5t-126 75.5t-86.5 131t-31.5 184zM269 1049q0 30 18.5 49.5t43.5 19.5q27 0 45 -19t18 -48q0 -30 -18 -50t-43 -20q-27 0 -45.5 19.5t-18.5 48.5zM301 465l361 2q2 21 2 64q0 60 -11 100q-16 63 -64.5 104t-119.5 41 q-73 0 -116.5 -84t-51.5 -227zM573 1049q0 30 18.5 49.5t43.5 19.5q27 0 45 -19t18 -48q0 -30 -18 -50t-43 -20q-27 0 -45.5 19.5t-18.5 48.5z" />
<glyph unicode="&#xec;" horiz-adv-x="524" d="M55 1174l58 67l313 -287l-45 -30zM80 0v33q85 3 108 16q17 9 19 25v671q-64 21 -127 21v33q182 7 291 45q-4 -346 -4 -770q8 -41 139 -41v-33q-89 7 -218 7q-130 0 -208 -7z" />
<glyph unicode="&#xed;" horiz-adv-x="524" d="M78 950l338 289l63 -94l-379 -232zM80 0v33q85 3 108 16q17 9 19 25v671q-64 21 -127 21v33q182 7 291 45q-4 -346 -4 -770q8 -41 139 -41v-33q-89 7 -218 7q-130 0 -208 -7z" />
<glyph unicode="&#xee;" horiz-adv-x="524" d="M0 905l276 303l246 -297l-26 -22l-226 207l-241 -207zM80 0v33q85 3 108 16q17 9 19 25v671q-64 21 -127 21v33q182 7 291 45q-4 -346 -4 -770q8 -41 139 -41v-33q-89 7 -218 7q-130 0 -208 -7z" />
<glyph unicode="&#xef;" horiz-adv-x="524" d="M42 1049q0 30 18 49.5t43 19.5q27 0 45.5 -19t18.5 -48q0 -30 -18.5 -50t-43.5 -20q-26 0 -44.5 19.5t-18.5 48.5zM80 0v33q85 3 108 16q17 9 19 25v671q-64 21 -127 21v33q182 7 291 45q-4 -346 -4 -770q8 -41 139 -41v-33q-89 7 -218 7q-130 0 -208 -7zM346 1049 q0 30 18.5 49.5t43.5 19.5q27 0 45 -19t18 -48q0 -30 -18 -50t-43 -20q-27 0 -45.5 19.5t-18.5 48.5z" />
<glyph unicode="&#xf1;" horiz-adv-x="1048" d="M131 0v33q41 0 83.5 15.5t43.5 35.5q5 137 5 321q0 177 -5 314q-8 4 -15.5 7.5t-13.5 5.5t-14.5 4t-13 3t-15.5 2t-15 1.5t-19 1.5t-21 1v33q13 -1 38 -1q112 0 237 38l16 -197q128 193 270 193q68 0 121 -21.5t83.5 -54t50 -76.5t26 -83.5t6.5 -79.5v-410 q0 -21 46.5 -37t84.5 -16v-33q-171 9 -250 9q-104 0 -180 -9v33q41 2 86 17t45 34q2 335 2 405q0 111 -39.5 178.5t-116.5 67.5q-64 0 -137.5 -61t-101.5 -152v-446q0 -17 43 -28t96 -15v-33q-89 7 -218 7q-130 0 -208 -7zM352 911q0 55 39.5 121t95.5 66q29 0 58 -19 t49.5 -42t51 -42t62.5 -19q33 0 54.5 10t30.5 29.5t12 36.5t3 43h32q0 -20 -2.5 -43t-11.5 -55.5t-23.5 -57t-42.5 -42.5t-65 -18t-70 21t-52 45.5t-44.5 45.5t-50.5 21q-39 0 -70 -34t-31 -68z" />
<glyph unicode="&#xf2;" horiz-adv-x="952" d="M102 424q0 119 61 215t152.5 145.5t190.5 49.5q88 0 168 -34.5t136 -91t89 -130.5t33 -152q0 -92 -24.5 -173t-72.5 -146.5t-128.5 -103.5t-184.5 -38q-420 0 -420 459zM287 389q0 -166 63.5 -269.5t177.5 -103.5q108 0 168 100t60 287q0 100 -26.5 188t-81 146 t-124.5 58q-57 0 -100.5 -26.5t-69 -67.5t-41 -97.5t-21 -107.5t-5.5 -107zM326 1174l57 67l313 -287l-45 -30z" />
<glyph unicode="&#xf3;" horiz-adv-x="952" d="M102 424q0 119 61 215t152.5 145.5t190.5 49.5q88 0 168 -34.5t136 -91t89 -130.5t33 -152q0 -92 -24.5 -173t-72.5 -146.5t-128.5 -103.5t-184.5 -38q-420 0 -420 459zM287 389q0 -166 63.5 -269.5t177.5 -103.5q108 0 168 100t60 287q0 100 -26.5 188t-81 146 t-124.5 58q-57 0 -100.5 -26.5t-69 -67.5t-41 -97.5t-21 -107.5t-5.5 -107zM348 950l338 289l64 -94l-379 -232z" />
<glyph unicode="&#xf4;" horiz-adv-x="952" d="M102 424q0 119 61 215t152.5 145.5t190.5 49.5q88 0 168 -34.5t136 -91t89 -130.5t33 -152q0 -92 -24.5 -173t-72.5 -146.5t-128.5 -103.5t-184.5 -38q-420 0 -420 459zM287 389q0 -166 63.5 -269.5t177.5 -103.5q108 0 168 100t60 287q0 100 -26.5 188t-81 146 t-124.5 58q-57 0 -100.5 -26.5t-69 -67.5t-41 -97.5t-21 -107.5t-5.5 -107zM287 905l276 303l246 -297l-27 -22l-225 207l-242 -207z" />
<glyph unicode="&#xf5;" horiz-adv-x="952" d="M102 424q0 119 61 215t152.5 145.5t190.5 49.5q88 0 168 -34.5t136 -91t89 -130.5t33 -152q0 -92 -24.5 -173t-72.5 -146.5t-128.5 -103.5t-184.5 -38q-420 0 -420 459zM287 389q0 -166 63.5 -269.5t177.5 -103.5q108 0 168 100t60 287q0 100 -26.5 188t-81 146 t-124.5 58q-57 0 -100.5 -26.5t-69 -67.5t-41 -97.5t-21 -107.5t-5.5 -107zM353 908q0 55 39.5 121t95.5 66q29 0 58 -19t49.5 -42t51 -42t62.5 -19q33 0 54.5 10t30.5 29.5t12 36.5t3 43h32q0 -20 -2.5 -43t-11.5 -55.5t-23.5 -57t-42.5 -42.5t-65 -18t-70 21t-52.5 45.5 t-44.5 45.5t-50 21q-39 0 -70 -34t-31 -68z" />
<glyph unicode="&#xf6;" horiz-adv-x="952" d="M102 424q0 119 61 215t152.5 145.5t190.5 49.5q88 0 168 -34.5t136 -91t89 -130.5t33 -152q0 -92 -24.5 -173t-72.5 -146.5t-128.5 -103.5t-184.5 -38q-420 0 -420 459zM287 389q0 -166 63.5 -269.5t177.5 -103.5q108 0 168 100t60 287q0 100 -26.5 188t-81 146 t-124.5 58q-57 0 -100.5 -26.5t-69 -67.5t-41 -97.5t-21 -107.5t-5.5 -107zM335 1049q0 30 18 49.5t43 19.5q27 0 45.5 -19t18.5 -48q0 -30 -18.5 -50t-43.5 -20q-26 0 -44.5 19.5t-18.5 48.5zM639 1049q0 30 18 49.5t43 19.5q27 0 45.5 -19t18.5 -48q0 -30 -18.5 -50 t-43.5 -20q-26 0 -44.5 19.5t-18.5 48.5z" />
<glyph unicode="&#xf7;" d="M92 377v123h858v-123h-858zM401 199q0 40 28 65t58 25q37 0 66 -19.5t29 -66.5q0 -101 -95 -101q-40 0 -63 30.5t-23 66.5zM401 700q0 40 28 65.5t58 25.5q37 0 66 -19.5t29 -66.5q0 -101 -95 -101q-40 0 -63 30t-23 66z" />
<glyph unicode="&#xf9;" horiz-adv-x="1019" d="M123 758v33q177 0 289 20l-4 -547q5 -229 108 -229q46 0 91 27t77 65t57 76t37 65l13 27v438q-39 25 -119 25v33q190 0 295 20q-14 -242 -17 -397q-1 -31 -1 -101l3 -258q23 -20 121 -22v-25q-145 -7 -272 -39l-15 219q-5 -9 -15 -23t-42 -50.5t-64.5 -64t-80 -50.5 t-92.5 -23q-138 0 -193.5 72.5t-56.5 210.5l-2 481q-34 17 -117 17zM410 1174l57 67l313 -287l-45 -30z" />
<glyph unicode="&#xfa;" horiz-adv-x="1019" d="M123 758v33q177 0 289 20l-4 -547q5 -229 108 -229q46 0 91 27t77 65t57 76t37 65l13 27v438q-39 25 -119 25v33q190 0 295 20q-14 -242 -17 -397q-1 -31 -1 -101l3 -258q23 -20 121 -22v-25q-145 -7 -272 -39l-15 219q-5 -9 -15 -23t-42 -50.5t-64.5 -64t-80 -50.5 t-92.5 -23q-138 0 -193.5 72.5t-56.5 210.5l-2 481q-34 17 -117 17zM434 950l338 289l64 -94l-379 -232z" />
<glyph unicode="&#xfb;" horiz-adv-x="1019" d="M123 758v33q177 0 289 20l-4 -547q5 -229 108 -229q46 0 91 27t77 65t57 76t37 65l13 27v438q-39 25 -119 25v33q190 0 295 20q-14 -242 -17 -397q-1 -31 -1 -101l3 -258q23 -20 121 -22v-25q-145 -7 -272 -39l-15 219q-5 -9 -15 -23t-42 -50.5t-64.5 -64t-80 -50.5 t-92.5 -23q-138 0 -193.5 72.5t-56.5 210.5l-2 481q-34 17 -117 17zM322 905l276 303l246 -297l-27 -22l-225 207l-242 -207z" />
<glyph unicode="&#xfc;" horiz-adv-x="1019" d="M123 758v33q177 0 289 20l-4 -547q5 -229 108 -229q46 0 91 27t77 65t57 76t37 65l13 27v438q-39 25 -119 25v33q190 0 295 20q-14 -242 -17 -397q-1 -31 -1 -101l3 -258q23 -20 121 -22v-25q-145 -7 -272 -39l-15 219q-5 -9 -15 -23t-42 -50.5t-64.5 -64t-80 -50.5 t-92.5 -23q-138 0 -193.5 72.5t-56.5 210.5l-2 481q-34 17 -117 17zM351 1049q0 30 18.5 49.5t43.5 19.5q27 0 45 -19t18 -48q0 -30 -18 -50t-43 -20q-27 0 -45.5 19.5t-18.5 48.5zM655 1049q0 30 18.5 49.5t43.5 19.5q27 0 45 -19t18 -48q0 -30 -18 -50t-43 -20 q-27 0 -45.5 19.5t-18.5 48.5z" />
<glyph unicode="&#xfd;" horiz-adv-x="1097" d="M61 -303q0 62 32.5 93.5t76.5 31.5q49 0 89 -24.5t40 -73.5q0 -31 -22 -59.5t-58 -43.5q27 -22 84 -22q34 0 100 59q77 72 156 307l-305 707q-20 49 -70 69q-40 15 -114 21v29q99 -8 211 -8q149 0 239 8l-4 -29q-46 0 -66 -11t-20 -40q0 -18 12 -56l201 -512l217 500 q15 36 15 59q0 18 -9 30.5t-20.5 18.5t-34.5 9t-37.5 3.5t-42.5 0.5l4 29q74 -9 181 -9q112 0 159 11l-4 -29q-78 0 -94 -16q-13 -11 -34 -50t-32 -69l-358 -856q-45 -107 -115 -168q-78 -66 -182 -66q-68 0 -131.5 45t-63.5 111zM406 950l337 289l64 -94l-379 -232z" />
<glyph unicode="&#xff;" horiz-adv-x="1048" d="M61 -303q0 62 32.5 93.5t76.5 31.5q49 0 89 -24.5t40 -73.5q0 -31 -22 -59.5t-58 -43.5q27 -22 84 -22q34 0 100 59q77 72 156 307l-305 707q-20 49 -70 69q-40 15 -114 21v29q99 -8 211 -8q149 0 239 8l-4 -29q-46 0 -66 -11t-20 -40q0 -18 12 -56l201 -512l217 500 q15 36 15 59q0 18 -9 30.5t-20.5 18.5t-34.5 9t-37.5 3.5t-42.5 0.5l4 29q74 -9 181 -9q112 0 159 11l-4 -29q-78 0 -94 -16q-13 -11 -34 -50t-32 -69l-358 -856q-45 -107 -115 -168q-78 -66 -182 -66q-68 0 -131.5 45t-63.5 111zM443 1049q0 30 18.5 49.5t43.5 19.5 q27 0 45 -19t18 -48q0 -30 -18 -50t-43 -20q-27 0 -45.5 19.5t-18.5 48.5zM748 1049q0 30 18 49.5t43 19.5q27 0 45 -19t18 -48q0 -30 -18 -50t-43 -20q-26 0 -44.5 19.5t-18.5 48.5z" />
<glyph unicode="&#x152;" horiz-adv-x="1585" d="M98 608q0 118 25 217t66.5 169t100.5 125t123 89t138.5 56t142 30.5t137.5 8.5q50 0 104 -8t119 -29.5t125 -54t117 -86.5t98.5 -122.5t67 -165.5t25.5 -212q0 -124 -40.5 -231.5t-108 -183t-153.5 -129.5t-177.5 -80t-180.5 -26q-115 0 -223.5 27.5t-200 82t-160 129.5 t-107 176.5t-38.5 217.5zM336 623q0 -71 13.5 -147t49 -160t89 -149t142.5 -108t201 -43q188 0 307 172t119 437q0 315 -115 479t-327 164q-79 0 -144 -15.5t-129.5 -59t-108 -114t-70.5 -186.5t-27 -270z" />
<glyph unicode="&#x153;" horiz-adv-x="884" d="M82 424q0 90 35.5 168.5t93 130.5t129.5 81.5t145 29.5q50 0 96 -17t87 -49.5t70.5 -63t64.5 -73.5q67 83 146.5 132.5t154.5 49.5q38 0 75.5 -7t77.5 -24.5t72.5 -44.5t58.5 -70.5t37 -99.5q9 -45 9 -79q0 -32 -2 -52l-541 -2v-45q0 -66 12.5 -130t36.5 -120t65 -90.5 t93 -34.5q63 0 115 23t84 60t50 66.5t29 59.5l56 -39q-10 -23 -25 -48t-44.5 -57t-66 -56t-90.5 -41t-116 -17q-87 0 -156 49.5t-135 135.5q-32 -40 -56.5 -66.5t-62.5 -57t-82.5 -46t-95.5 -15.5q-420 0 -420 459zM266 389q0 -166 64 -269.5t178 -103.5q108 0 167.5 99.5 t59.5 287.5q0 100 -26.5 188t-80.5 146t-124 58q-71 0 -120.5 -38.5t-73.5 -103t-34 -128.5t-10 -136zM893 465l360 2q3 31 3 64q0 60 -11 100q-16 63 -64.5 104t-119.5 41q-73 0 -116.5 -84t-51.5 -227z" />
<glyph unicode="&#x178;" horiz-adv-x="1290" d="M27 1223v28q88 -8 277 -8q194 0 284 8v-39q-30 -3 -75.5 -12.5t-51.5 -21.5q-7 -15 -12 -33t-6 -29l-1 -10q132 -261 279 -504q290 520 290 546q0 29 -44 42l-121 33v28q88 -8 210 -8q118 0 208 8v-39q-85 -5 -134 -34q-14 -8 -33 -27t-31 -34l-13 -15q-21 -36 -83 -143 t-83.5 -145t-59 -107.5t-65.5 -128.5q0 -76 8 -508q0 -50 164 -50v-38h-545v32h22q148 0 150 45q4 231 10 435q-61 143 -154 307.5t-188 296.5q-46 64 -90 86q-54 26 -112 39zM501 1401q0 30 18 49.5t43 19.5q27 0 45.5 -19t18.5 -48q0 -30 -18.5 -50t-43.5 -20 q-26 0 -44.5 19.5t-18.5 48.5zM805 1401q0 30 18 49.5t43 19.5q27 0 45.5 -19t18.5 -48q0 -30 -18.5 -50t-43.5 -20q-26 0 -44.5 19.5t-18.5 48.5z" />
<glyph unicode="&#x2c6;" horiz-adv-x="843" d="M152 915l276 304l246 -297l-27 -23l-225 207l-242 -207z" />
<glyph unicode="&#x2dc;" horiz-adv-x="512" d="M12 551q0 55 39.5 121t95.5 66q29 0 58 -19t49.5 -42.5t51 -42.5t62.5 -19q33 0 54.5 10t30.5 29.5t12 36.5t3 43h32q0 -20 -2.5 -43t-11.5 -55t-23.5 -57t-42.5 -42.5t-65 -17.5q-31 0 -57.5 13.5t-45.5 33t-36.5 39t-37.5 33t-40 13.5q-39 0 -70 -33.5t-31 -67.5z" />
<glyph unicode="&#x2000;" horiz-adv-x="879" />
<glyph unicode="&#x2001;" horiz-adv-x="1758" />
<glyph unicode="&#x2002;" horiz-adv-x="879" />
<glyph unicode="&#x2003;" horiz-adv-x="1758" />
<glyph unicode="&#x2004;" horiz-adv-x="586" />
<glyph unicode="&#x2005;" horiz-adv-x="439" />
<glyph unicode="&#x2006;" horiz-adv-x="293" />
<glyph unicode="&#x2007;" horiz-adv-x="293" />
<glyph unicode="&#x2008;" horiz-adv-x="219" />
<glyph unicode="&#x2009;" horiz-adv-x="351" />
<glyph unicode="&#x200a;" horiz-adv-x="97" />
<glyph unicode="&#x2010;" horiz-adv-x="944" d="M147 532l17 134h670l-11 -138z" />
<glyph unicode="&#x2011;" horiz-adv-x="944" d="M147 532l17 134h670l-11 -138z" />
<glyph unicode="&#x2012;" horiz-adv-x="944" d="M147 532l17 134h670l-11 -138z" />
<glyph unicode="&#x2013;" horiz-adv-x="1064" d="M70 385v107h925v-107h-925z" />
<glyph unicode="&#x2014;" horiz-adv-x="2088" d="M68 389v107h1951v-107h-1951z" />
<glyph unicode="&#x2018;" horiz-adv-x="509" d="M115 1020q0 118 75.5 205.5t155.5 97.5l16 -31q-44 -18 -103.5 -70.5t-63.5 -101.5q3 2 10.5 6.5t9.5 5.5t8 4.5t8.5 4.5t8 3.5t9.5 3t9.5 1.5t11 1.5t11.5 0.5q59 0 99 -46.5t40 -105.5q0 -68 -48.5 -108.5t-101.5 -40.5t-104 47t-51 123z" />
<glyph unicode="&#x2019;" horiz-adv-x="509" d="M115 1174q0 68 48 108.5t101 40.5t104.5 -47t51.5 -123q0 -118 -75.5 -205.5t-156.5 -97.5l-16 31q45 18 104.5 70.5t63.5 101.5q-3 -2 -10.5 -6.5t-9.5 -5.5t-8 -4.5t-8.5 -4.5t-8 -3.5t-9.5 -3t-9.5 -1.5t-11 -1.5t-11.5 -0.5q-59 0 -99 46.5t-40 105.5z" />
<glyph unicode="&#x201a;" horiz-adv-x="509" d="M115 125q0 68 48 108.5t101 40.5t104.5 -47t51.5 -123q0 -118 -75.5 -205.5t-156.5 -97.5l-16 31q45 18 104.5 70.5t63.5 101.5q-3 -2 -10.5 -6.5t-9.5 -5.5t-8 -4.5t-8.5 -4.5t-8 -3.5t-9.5 -3t-9.5 -1.5t-11 -1.5t-11.5 -0.5q-59 0 -99 46.5t-40 105.5z" />
<glyph unicode="&#x201c;" horiz-adv-x="933" d="M115 1020q0 118 75.5 205.5t155.5 97.5l16 -31q-44 -18 -103.5 -70.5t-63.5 -101.5q3 2 10.5 6.5t9.5 5.5t8 4.5t8.5 4.5t8 3.5t9.5 3t9.5 1.5t11 1.5t11.5 0.5q59 0 99 -46.5t40 -105.5q0 -68 -48.5 -108.5t-101.5 -40.5t-104 47t-51 123zM526 1020q0 118 75.5 205.5 t156.5 97.5l16 -31q-45 -18 -104.5 -70.5t-63.5 -101.5q3 2 10.5 6.5t9.5 5.5t8 4.5t8.5 4.5t8 3.5t9.5 3t9.5 1.5t11 1.5t11.5 0.5q59 0 99 -46.5t40 -105.5q0 -68 -48 -108.5t-101 -40.5t-104.5 47t-51.5 123z" />
<glyph unicode="&#x201d;" horiz-adv-x="933" d="M115 1174q0 68 48 108.5t101 40.5t104.5 -47t51.5 -123q0 -118 -75.5 -205.5t-156.5 -97.5l-16 31q45 18 104.5 70.5t63.5 101.5q-3 -2 -10.5 -6.5t-9.5 -5.5t-8 -4.5t-8.5 -4.5t-8 -3.5t-9.5 -3t-9.5 -1.5t-11 -1.5t-11.5 -0.5q-59 0 -99 46.5t-40 105.5zM526 1174 q0 68 48.5 108.5t101.5 40.5t104 -47t51 -123q0 -118 -75.5 -205.5t-155.5 -97.5l-16 31q45 18 104.5 70.5t63.5 101.5q-3 -2 -10.5 -6.5t-9.5 -5.5t-8 -4.5t-8.5 -4.5t-8 -3.5t-9.5 -3t-9.5 -1.5t-11 -1.5t-11.5 -0.5q-60 0 -100 46.5t-40 105.5z" />
<glyph unicode="&#x201e;" horiz-adv-x="933" d="M106 127q0 68 48.5 108.5t101.5 40.5t104.5 -47t51.5 -123q0 -118 -75.5 -205.5t-156.5 -97.5l-16 31q45 18 104.5 70.5t63.5 101.5q-3 -2 -10.5 -6.5t-9.5 -5.5t-8 -4.5t-8.5 -4.5t-8 -3.5t-9.5 -3t-9.5 -1.5t-11 -1.5t-11.5 -0.5q-60 0 -100 46.5t-40 105.5zM518 127 q0 68 48.5 108.5t101.5 40.5t104 -47t51 -123q0 -118 -75.5 -205.5t-155.5 -97.5l-17 31q45 18 104.5 70.5t63.5 101.5q-3 -2 -10.5 -6.5t-9.5 -5.5t-8 -4.5t-8.5 -4.5t-8 -3.5t-9.5 -3t-9.5 -1.5t-11 -1.5t-11.5 -0.5q-59 0 -99 46.5t-40 105.5z" />
<glyph unicode="&#x2026;" horiz-adv-x="1329" d="M121 127q0 68 47.5 108.5t99.5 40.5q35 0 68 -11.5t60.5 -45.5t27.5 -86q0 -81 -40 -119.5t-110 -38.5q-68 0 -110.5 45.5t-42.5 106.5zM514 127q0 68 47.5 108.5t100.5 40.5q35 0 68 -11.5t60 -45.5t27 -86q0 -81 -39.5 -119.5t-109.5 -38.5q-68 0 -111 45.5t-43 106.5z M903 127q0 68 47.5 108.5t100.5 40.5q35 0 68 -11.5t60 -45.5t27 -86q0 -81 -39.5 -119.5t-109.5 -38.5q-68 0 -111 45.5t-43 106.5z" />
<glyph unicode="&#x202f;" horiz-adv-x="351" />
<glyph unicode="&#x205f;" horiz-adv-x="439" />
<glyph unicode="&#xe000;" horiz-adv-x="788" d="M0 0v788h788v-788h-788z" />
</font>
</defs>
</svg>
